Скачать Сваты 5 (Новые приключения полюбившихся героев)(Сезон 5 полностью, серии 1-16 из 16) (Эдуард Радзюкевич, Андрей Яковлев) [2011 г., комедия, SATRip] торрент с торрент трекера Mul-Tor

Страницы :  1, 2  След.

Ответить на тему
Статистика раздачи
Размер:  10,94 GB   |    Зарегистрирован:  5 лет 1 месяц   |    Скачан:  932 раза

Полного источника не было: 1 год

 
 
 
 
 
Автор Сообщение

brogiaga ®

Пол: Не указан

Стаж: 5 лет 3 месяца

Сообщений: 349

Откуда: Подмосковье

Создавать темы 06-Дек-2011 09:16

[Цитировать]

Сваты 5 (Новые приключения полюбившихся героев)    (Сезон 5 полностью, серии1-16 из 16)
Год выпуска: 2011
Страна: Украина, KYIVFILM, Студия "Квартал-95"    
Жанр: комедия
Продолжительность: ~ 00:52 - серия
Перевод: Не требуется
Режиссер: Эдуард Радзюкевич, Андрей Яковлев
Продюссер: Владимир Зеленский, Сергей Созановский, Борис Шефир
Сценарий: Андрей Яковлев, Юрий Костюк, Андрей Ильков
Премьера в мире: 5 декабря 2011
В ролях: Федор Добронравов, Татьяна Кравченко, Людмила Артемьева, Александр Феклистов, Олеся Железняк, Николай Добрынин, Анна Кошмал, Владимир Зельдин, Ольга Аросева, Елена Сафонова, Эммануил Виторган
Описание: После невероятного курортного четвертого сезона прошло 8 лет. Молодые Ковалевы с детьми провели все эти годы в Голландии и не часто приезжали на родину. Но вот они возвращаются!
Сваты счастливы, что дети и внуки, наконец, будут рядом. Вот только за эти годы многое изменилось. Милая девочка Женя превратилась в неформального подростка с кучей проблем и конфликтов с родителями. Несмышленые карапузы Вика и Никита, свидетелями рождения которых зрители стали еще во втором сезоне сериала, выросли в очень смышленых и расчетливых не по годам бизнес-бэби! А Максим и Маша слишком заняты своей карьерой, и ни времени, ни желания что-то исправить у них нет. Поэтому в процесс воспитания активно включаются бабушки и дедушки! Сваты забирают Женю, Вику и Никиту на все лето. Им вместе предстоит провести очередной сезон в дачном поселке в доме Ковалевых. И ждут их новые невероятные приключения: где будут и погони, и побеги, и новые любовные интриги и романтические свидания.

Доп. информация:
Качество: SATRip
Формат: AVI
Видео кодек: XviD
Аудио кодек: MP3
Видео: 720x400(16:9), 25,0 fps, MPEG-4(XviD)~1693 kbps avg, 0,235 bit/pixel
Аудио: 48,0 KHz, MPEG Audio(MP3), 2 channels~192 kbps avg

Скриншоты







MediaInfo

Complete name : H:\СВАТЫ-5\Svati.5\Svati.5.seria.01.avi
Format : AVI
Format/Info : Audio Video Interleave
File size : 700 MiB
Duration : 51mn 38s
Overall bit rate : 1 895 Kbps
Writing application : VirtualDubMod 1.5.10.2 (build 2540/release)
Writing library : VirtualDubMod build 2540/release
Video
ID : 0
Format : MPEG-4 Visual
Format profile : Advanced Simple@L5
Format settings, BVOP : 2
Format settings, QPel : No
Format settings, GMC : No warppoints
Format settings, Matrix : Default (MPEG)
Codec ID : XVID
Codec ID/Hint : XviD
Duration : 51mn 38s
Bit rate : 1 693 Kbps
Width : 720 pixels
Height : 400 pixels
Display aspect ratio : 16:9
Frame rate : 25.000 fps
Color space : YUV
Chroma subsampling : 4:2:0
Bit depth : 8 bits
Scan type : Progressive
Compression mode : Lossy
Bits/(Pixel*Frame) : 0.235
Stream size : 626 MiB (89%)
Writing library : XviD 64
Audio
ID : 1
Format : MPEG Audio
Format version : Version 1
Format profile : Layer 3
Mode : Joint stereo
Codec ID : 55
Codec ID/Hint : MP3
Duration : 51mn 38s
Bit rate mode : Constant
Bit rate : 192 Kbps
Channel(s) : 2 channels
Sampling rate : 48.0 KHz
Compression mode : Lossy
Stream size : 70.9 MiB (10%)
Alignment : Aligned on interleaves
Interleave, duration : 40 ms (1.00 video frame)
Interleave, preload duration : 504 ms
Writing library : LAME3.90.3
23.12. добавлена шестнадцатая заключительная серия, перезалейте торрент-файл. cкачать торрентом
[mul-tor.ru].t19223.torrent 
Торрент: Зарегистрирован [ 2011-12-23 12:16 ] · BD0CCE1F040F15B53FAC9717E34E05D5F5A75D0D

Скачать .torrent

Скачать

29 KB

Статус: проверено
Скачан: 932 раз
Размер: 10,94 GB
 

Лайкните!!! Поддержите торрент трекер!!!





Последний раз редактировалось: brogiaga (2011-12-23 12:16), всего редактировалось 16 раз(а)
[Профиль] [ЛС]

hi!

Пол: Не указан

Стаж: 5 лет 3 месяца

Сообщений: 2

Создавать темы 06-Дек-2011 21:51 (спустя 12 часов)

[Цитировать]

ag ag ag ag ag ag ag ag ag ag ag cкачать торрентом
[Профиль] [ЛС]

Создавать темы 06-Дек-2011 23:44 (спустя 1 час 53 минуты)

Топик был перенесен из форума Отечественные сериалы в форум Сваты

druger cкачать торрентом
 

dvd7070

Пол: Не указан

Стаж: 6 лет

Сообщений: 11

Создавать темы 07-Дек-2011 01:25 (спустя 3 часа)

[Цитировать]

bb наконец ....дождались....когда будут добавляться остальные серии????? cкачать торрентом
[Профиль] [ЛС]

brogiaga ®

Пол: Не указан

Стаж: 5 лет 3 месяца

Сообщений: 349

Откуда: Подмосковье

Создавать темы 07-Дек-2011 03:33 (спустя 2 часа 8 минут)

[Цитировать]

Как только выйдут - сразу добавлю, завтра будет вторая серия. cкачать торрентом
[Профиль] [ЛС]

brogiaga ®

Пол: Не указан

Стаж: 5 лет 3 месяца

Сообщений: 349

Откуда: Подмосковье

Создавать темы 07-Дек-2011 17:26 (спустя 13 часов)

[Цитировать]

Внимание ВСЕМ! Вечером выложу 3 и 4 серии. cкачать торрентом
[Профиль] [ЛС]

nitrat

Пол: Не указан

Стаж: 6 лет 6 месяцев

Сообщений: 12

Создавать темы 07-Дек-2011 18:49 (спустя 1 час 22 минуты)

[Цитировать]

Спасибо очень ждал с женой 5 сезон сватов. Очень благодарен раздающему!!! cкачать торрентом
[Профиль] [ЛС]

Андрей рус-Белгород

Пол: Не указан

Стаж: 6 лет 2 месяца

Сообщений: 39

Создавать темы 07-Дек-2011 22:41 (спустя 3 часа)

[Цитировать]

Огромное человеческое спасибо ,замечательный сериал! ay cкачать торрентом
[Профиль] [ЛС]

setmag

Пол: Не указан

Стаж: 6 лет 11 месяцев

Сообщений: 46

Откуда: Тула

Создавать темы 09-Дек-2011 16:27 (спустя 1 день 17 часов)

[Цитировать]

На youtoobe уже есть 7 серия . Автор не спи ad cкачать торрентом
[Профиль] [ЛС]

brogiaga ®

Пол: Не указан

Стаж: 5 лет 3 месяца

Сообщений: 349

Откуда: Подмосковье

Создавать темы 09-Дек-2011 21:20 (спустя 4 часа)

[Цитировать]

Я не сплю, просто вечером будет ещё и 8 серия. Так что ждите. cкачать торрентом
[Профиль] [ЛС]

sag1977

Пол: Не указан

Стаж: 5 лет 3 месяца

Сообщений: 1

Создавать темы 10-Дек-2011 05:10 (спустя 7 часов)

[Цитировать]

большое спасибо раздающему cкачать торрентом
[Профиль] [ЛС]

vladbova

Пол: Не указан

Стаж: 5 лет 2 месяца

Сообщений: 1

Создавать темы 10-Дек-2011 19:04 (спустя 13 часов)

[Цитировать]

Супер az ar an am cкачать торрентом
[Профиль] [ЛС]

riko61

Пол: Не указан

Стаж: 6 лет 4 месяца

Сообщений: 4

Создавать темы 13-Дек-2011 00:35 (спустя 2 дня 5 часов)

[Цитировать]

9 серию когда выложишь cкачать торрентом
[Профиль] [ЛС]

brogiaga ®

Пол: Не указан

Стаж: 5 лет 3 месяца

Сообщений: 349

Откуда: Подмосковье

Создавать темы 13-Дек-2011 04:16 (спустя 3 часа)

[Цитировать]

Всё выкладываю сразу, как только серии проходят по каналу "Интер", так что и 9 серия будет очень скоро. Ждём, друзья. cкачать торрентом
[Профиль] [ЛС]

Annushka2011

Пол: Не указан

Стаж: 5 лет 7 месяцев

Сообщений: 2

Создавать темы 20-Дек-2011 06:32 (спустя 7 дней)

[Цитировать]

aj cкачать торрентом
[Профиль] [ЛС]
Показать сообщения:    
Ответить на тему

Текущее время: 22-Фев 08:06

Часовой пояс: UTC + 2



Вы не можете начинать темы
Вы не можете отвечать на сообщения
Вы не можете редактировать свои сообщения
Вы не можете удалять свои сообщения
Вы не можете голосовать в опросах
Вы не можете прикреплять файлы к сообщениям
Вы можете скачивать файлы