Скачать Космическая эра: История НАСА / Space Age: NASA's Story / Abenteuer Weltraum: Die grossen Missionen der NASA (Анабель Маршалл / Anabelle Marshall) [2009, Документальный, HDRip] торрент с торрент трекера Mul-Tor

Ответить на тему
Статистика раздачи
Размер:  2,74 GB   |    Зарегистрирован:  6 месяцев 16 дней   |    Скачан:  0 раз
Сидов:  1  [  0 KB/s  ]   Личеров:  1  [  0 KB/s  ]   Подробная статистика пиров
 
 
 
 
 
Автор Сообщение

ucoz ®

Пол: Не указан

Стаж: 4 года 2 месяца

Сообщений: 1

Создавать темы 11-Авг-2016 23:00

[Цитировать]

Космическая эра: История НАСА / Space Age: NASA's Story / Abenteuer Weltraum: Die grossen Missionen der NASA
Год выпуска: 2009
Страна: Dangerous Films Ltd. (Великобритания) for BBC Worl
Жанр: Документальный
Продолжительность: 4 x ~ 00:51:19
Перевод: Профессиональный (полное дублирование)
Русские субтитры: нет
Режиссер: Анабель Маршалл / Anabelle Marshall
Описание: Бесконечность Вселенной стала уже чем-то обычным. Сегодня мы рассматриваем фотографии далеких галактик, используем спутниковую навигацию и привыкли к экспедициям на Международную космическую станцию. А ведь всего пол столетия назад мир, затаив дыхание, смотрел как человечество прорывается к непостижимому. Высадка человека на Луне стала одной из эпохальных вех и прорывов в науке и технологии. За этим последовали 10 лет новых открытий, расширивших человеческий горизонт. Наступила эпоха новых исследований. Сегодня эти исследователи вновь вспоминают те времена и расскажут нам, участниками и очевидцами каких событий они были...
Список серий и их описание:
1. Вверх / From the Ground Up / Pioniere im All. Созданное в годы холодной войны Национальное управление США по аэронавтике и исследованию космического пространства через первые неудачи и взрывы ракет все же успешно завершило программу Джемини. В ходе выполнения поставленных задач еще раз подтвердилось мнение специалистов о том, что основное освоение космоса все же будет происходить при непосредственном участии человека. А следовательно следующая цель - высадка человека на Луне.
2. На Луну / To the Moon / Die Mondlandung.Teil 1. Высадка человека на другом небесном теле - это первый шаг к заселению других планет. Программа Аполлон идет вперед семимильными шагами, с опережением графика. То, во что так верили и на что надеялись, было осуществлено миссиями Аполло-8, 9 и 10. Успешное возвращение на Землю первых людей побывавших на Луне - Нила Армстронга и Базза Олдрина, без всякого сомнения, было триумфом НАСА.
3. Триумф и трагедия / Tragedy / Die Mondlandung.Teil 2. Попытки НАСА повторить и закрепить успех, чуть не привели к провалу всей программы при полете Аполло-13. В дальнейшем Агентство переключается на проект «Спейс Шаттл», однако в тот момент, когда полеты в космос чуть ли не превращаются в обычную рутину, проект переживает две катастрофы - взрыв «Челленджера» на старте в 1986 году и разрушение «Колумбии» при возвращении на Землю в 2003 году...
4. Жизнь в Космосе / Life in Space / Leben im All. Освоение космоса потребовало от человека научится жить и работать в этом отнюдь не гостеприимном пространстве. НАСА начинает программу по развитию космических станций. Первой ласточкой становится «Скайлэб». Постепенно соперничество между США и СССР переходит в содружество и выполнение совместных проектов. Становится международным проектом и космический телескоп Хаббл, начавший свою миссию, наверное, с самой знаменитой ошибки в истории НАСА.
Доп. информация: Релиз группы
*Перевод: Профессиональный (полное дублирование) означает полное дублирование только голоса рассказчика, интервью ученых - одноголосый
Для работы использована дорожка от SATRip из релиза zahariii, за что ему очень признательны.
Качество : HDRip (Источник - BDRip 1080p)
Формат: AVI
Видео кодек: XviD
Аудио кодек: AC3
Видео: XviD, 1740 Кбит/с, 704x400, 25 fps
Аудио: Русский (AC3, 2 ch, 160 Кбит/с, 48 kHz)

MediaInfo

Общее
Полное имя : Kosmicheskaja.era.Istorija.NASA.(1.serija.iz.4).Vverx.2009.XviD.HDRip_DaVinci.avi
Формат : AVI
Формат/Информация : Audio Video Interleave
Размер файла : 701 Мбайт
Продолжительность : 51 м.
Общий поток : 1910 Кбит/сек
Программа кодирования : VirtualDubMod 1.5.10.2 (build 2542/release)
Библиотека кодирования : VirtualDubMod build 2542/release
Видео
Идентификатор : 0
Формат : MPEG-4 Visual
Профиль формата : Advanced Simple@L5
Параметр BVOP формата : Да
Параметр QPel формата : Нет
Параметр GMC формата : Без точки перехода
Параметр матрицы формата : Выборочная
Режим смешивания : Сжатый битовый поток
Идентификатор кодека : XVID
Идентификатор кодека/Подсказка : XviD
Продолжительность : 51 м.
Битрейт : 1740 Кбит/сек
Ширина : 704 пикс.
Высота : 400 пикс.
Соотношение сторон : 16:9
Частота кадров : 25,000 кадр/сек
Цветовое пространство : YUV
Подвыборка цветности : 4:2:0
Битовая глубина : 8 бит
Тип развёртки : Прогрессивная
Метод сжатия : С потерями
Бит/(Пиксели*Кадры) : 0.247
Размер потока : 639 Мбайт (91%)
Библиотека кодирования : XviD 1.2.1 (UTC 2008-12-04)
Аудио
Идентификатор : 1
Формат : AC-3
Формат/Информация : Audio Coding 3
Расширение режима : CM (complete main)
Идентификатор кодека : 2000
Продолжительность : 51 м.
Вид битрейта : Постоянный
Битрейт : 160 Кбит/сек
Канал(ы) : 2 канала(ов)
Расположение каналов : Front: L R
Частота : 48,0 КГц
Битовая глубина : 16 бит
Метод сжатия : С потерями
Размер потока : 58,7 Мбайт (8%)
Выравнивание : Разделение по промежуткам
Продолжительность промежутка : 40 мс. (1,00 видеокадр)
Время предзагрузки промежутка : 500 ms
Общее
Полное имя : Kosmicheskaja.era.Istorija.NASA.(2.serjia.iz.4).Na.Lunu.2009.XviD.HDRip_DaVinci.avi
Формат : AVI
Формат/Информация : Audio Video Interleave
Размер файла : 702 Мбайт
Продолжительность : 52 м.
Общий поток : 1879 Кбит/сек
Программа кодирования : VirtualDubMod 1.5.10.2 (build 2542/release)
Библиотека кодирования : VirtualDubMod build 2542/release
Видео
Идентификатор : 0
Формат : MPEG-4 Visual
Профиль формата : Advanced Simple@L5
Параметр BVOP формата : Да
Параметр QPel формата : Нет
Параметр GMC формата : Без точки перехода
Параметр матрицы формата : Выборочная
Режим смешивания : Сжатый битовый поток
Идентификатор кодека : XVID
Идентификатор кодека/Подсказка : XviD
Продолжительность : 52 м.
Битрейт : 1709 Кбит/сек
Ширина : 704 пикс.
Высота : 400 пикс.
Соотношение сторон : 16:9
Частота кадров : 25,000 кадр/сек
Цветовое пространство : YUV
Подвыборка цветности : 4:2:0
Битовая глубина : 8 бит
Тип развёртки : Прогрессивная
Метод сжатия : С потерями
Бит/(Пиксели*Кадры) : 0.243
Размер потока : 638 Мбайт (91%)
Библиотека кодирования : XviD 1.2.1 (UTC 2008-12-04)
Аудио
Идентификатор : 1
Формат : AC-3
Формат/Информация : Audio Coding 3
Расширение режима : CM (complete main)
Идентификатор кодека : 2000
Продолжительность : 52 м.
Вид битрейта : Постоянный
Битрейт : 160 Кбит/сек
Канал(ы) : 2 канала(ов)
Расположение каналов : Front: L R
Частота : 48,0 КГц
Битовая глубина : 16 бит
Метод сжатия : С потерями
Размер потока : 59,8 Мбайт (9%)
Выравнивание : Разделение по промежуткам
Продолжительность промежутка : 40 мс. (1,00 видеокадр)
Время предзагрузки промежутка : 500 ms
Общее
Полное имя : Kosmicheskaja.era.Istorija.NASA.(3.serjia.iz.4).Triumf.i.tragedija.2009.XviD.HDRip_DaVinci.avi
Формат : AVI
Формат/Информация : Audio Video Interleave
Размер файла : 702 Мбайт
Продолжительность : 51 м.
Общий поток : 1892 Кбит/сек
Программа кодирования : VirtualDubMod 1.5.10.2 (build 2542/release)
Библиотека кодирования : VirtualDubMod build 2542/release
Видео
Идентификатор : 0
Формат : MPEG-4 Visual
Профиль формата : Advanced Simple@L5
Параметр BVOP формата : Да
Параметр QPel формата : Нет
Параметр GMC формата : Без точки перехода
Параметр матрицы формата : Выборочная
Режим смешивания : Сжатый битовый поток
Идентификатор кодека : XVID
Идентификатор кодека/Подсказка : XviD
Продолжительность : 51 м.
Битрейт : 1722 Кбит/сек
Ширина : 704 пикс.
Высота : 400 пикс.
Соотношение сторон : 16:9
Частота кадров : 25,000 кадр/сек
Цветовое пространство : YUV
Подвыборка цветности : 4:2:0
Битовая глубина : 8 бит
Тип развёртки : Прогрессивная
Метод сжатия : С потерями
Бит/(Пиксели*Кадры) : 0.245
Размер потока : 639 Мбайт (91%)
Библиотека кодирования : XviD 1.2.1 (UTC 2008-12-04)
Аудио
Идентификатор : 1
Формат : AC-3
Формат/Информация : Audio Coding 3
Расширение режима : CM (complete main)
Идентификатор кодека : 2000
Продолжительность : 51 м.
Вид битрейта : Постоянный
Битрейт : 160 Кбит/сек
Канал(ы) : 2 канала(ов)
Расположение каналов : Front: L R
Частота : 48,0 КГц
Битовая глубина : 16 бит
Метод сжатия : С потерями
Размер потока : 59,4 Мбайт (8%)
Выравнивание : Разделение по промежуткам
Продолжительность промежутка : 40 мс. (1,00 видеокадр)
Время предзагрузки промежутка : 500 ms
Общее
Полное имя : Kosmicheskaja.era.Istorija.NASA.(4.serjia.iz.4).Wizn.v.kosmose.2009.XviD.HDRip_DaVinci.avi
Формат : AVI
Формат/Информация : Audio Video Interleave
Размер файла : 702 Мбайт
Продолжительность : 51 м.
Общий поток : 1905 Кбит/сек
Программа кодирования : VirtualDubMod 1.5.10.2 (build 2542/release)
Библиотека кодирования : VirtualDubMod build 2542/release
Видео
Идентификатор : 0
Формат : MPEG-4 Visual
Профиль формата : Advanced Simple@L5
Параметр BVOP формата : Да
Параметр QPel формата : Нет
Параметр GMC формата : Без точки перехода
Параметр матрицы формата : Выборочная
Режим смешивания : Сжатый битовый поток
Идентификатор кодека : XVID
Идентификатор кодека/Подсказка : XviD
Продолжительность : 51 м.
Битрейт : 1735 Кбит/сек
Ширина : 704 пикс.
Высота : 400 пикс.
Соотношение сторон : 16:9
Частота кадров : 25,000 кадр/сек
Цветовое пространство : YUV
Подвыборка цветности : 4:2:0
Битовая глубина : 8 бит
Тип развёртки : Прогрессивная
Метод сжатия : С потерями
Бит/(Пиксели*Кадры) : 0.247
Размер потока : 639 Мбайт (91%)
Библиотека кодирования : XviD 1.2.1 (UTC 2008-12-04)
Аудио
Идентификатор : 1
Формат : AC-3
Формат/Информация : Audio Coding 3
Расширение режима : CM (complete main)
Идентификатор кодека : 2000
Продолжительность : 51 м.
Вид битрейта : Постоянный
Битрейт : 160 Кбит/сек
Канал(ы) : 2 канала(ов)
Расположение каналов : Front: L R
Частота : 48,0 КГц
Битовая глубина : 16 бит
Метод сжатия : С потерями
Размер потока : 58,9 Мбайт (8%)
Выравнивание : Разделение по промежуткам
Продолжительность промежутка : 40 мс. (1,00 видеокадр)
Время предзагрузки промежутка : 500 ms
cкачать торрентом
[mul-tor.ru].t113418.torrent 
Торрент: Зарегистрирован [ 2016-08-11 23:00 ] · 2B3BC36AB54A11D4BD923EEDD89125C610CE93F1

Скачать .torrent

Скачать

15 KB

Статус: проверено
Скачан: 0 раз
Размер: 2,74 GB
 

Лайкните!!! Поддержите торрент трекер!!!



[Профиль] [ЛС]
Показать сообщения:    
Ответить на тему

Текущее время: 28-Фев 09:48

Часовой пояс: UTC + 2



Вы не можете начинать темы
Вы не можете отвечать на сообщения
Вы не можете редактировать свои сообщения
Вы не можете удалять свои сообщения
Вы не можете голосовать в опросах
Вы не можете прикреплять файлы к сообщениям
Вы можете скачивать файлы