Скачать Власть Закона / The Chicago Code Сезон 1 эпизод 1-13(13)[2011 г., криминальная драма, WEB-DLRip](NovaFilm) торрент с торрент трекера Mul-Tor

Ответить на тему
Статистика раздачи
Размер:  10,05 GB   |    Зарегистрирован:  5 месяцев 5 дней   |    Скачан:  0 раз
Сидов:  1  [  0 KB/s  ]   Личеров:  6  [  0 KB/s  ]   Подробная статистика пиров
 
 
 
 
 
Автор Сообщение

crab1k ®

Пол: Не указан

Стаж: 5 лет 2 месяца

Сообщений: 2

Создавать темы 11-Авг-2016 02:30

[Цитировать]

-Власть Закона / The Chicago Code
«He built an empire of corruption.»
Год выпуска: 2011
Страна: США
Жанр: криминальная драма
Продолжительность: ~ 45 мин
Перевод: Профессиональный двухголосый закадровый(Кубик в Кубе)
Русские субтитры: надписи
Автор идеи: Шон Райан
-В ролях:
Джейсон Кларк (Джарек Высоки), Дженнифер Билз (Терес Колвин), Мэтт Лауриа (Калеб Эверс), Девин Келли (Вонда Высоки), Тодд Уильямс (Исаак Джойнер), Делрой Линдо (Ронин Гиббонс), Билли Луш (Лиам Хеннеси) и др.
Описание:
Чикаго – город-парадокс, в котором происходит действие новой драмы от Шона Райана (The Shield, The Unit). Первое название сериала Ride-along обозначало ситуацию, по которой гражданский может провести некоторое время в пассажирском сиденье патрульной машины, наблюдая за рабочим днем офицера полиции. Но в этом сериале аудитория и есть пассажир, который отправляется в непредсказуемую поездку в мир преступности и коррупции на улицах Чикаго, путешествуя с самыми уважаемыми – и нашумевшими – полицейскими в городе. Джарек Высоки – местная легенда и ветеран департамента полиции Чикаго. Как и весь Чикаго, Джарек – колючий и острый как бритва внутри, вежливый и очаровательный снаружи. Он меняет напарников как перчатки. Тереса Колвин взобралась на вершину департамента полиции Чикаго за короткий срок. Она полна решимости к переменам еще до того, как политические отбросы Чикаго заполонят её офис. В результате этого, на её пути появились весьма влиятельные враги, включая две уличные банды, союз офицеров полиции и городской олдермен, который оказывается опасным оппонентом. Калеб Эверс, новый напарник Джарека, умный и внимательный молодой детектив, который отчаянно хочет проявить себя. Намного сообразительнее и наблюдательнее, чем многие от него ожидают. Может прекрасно дополнить Джарека. Под командованием Джарека также находится его племянница Вонда Высоки, необстрелянный новичок полиции, отец которой (брат Джарека) был убит еще молодым при исполнении служебных обязанностей. Джарек пристально следит за ней и не очень-то рад тому, что она влюбилась в своего напарника Исаака Джойнера, харизматического копа, который зачастую неоправданно рискует, подвергая опасности себя и Вонду. Олдермен Ронин Гиббонс – бывший строительный магнат, а ныне политик, который управляет свои административным районом в течение трех десятилетий. Джарек и Тересса убеждены, что Гиббонс и его пособники, включая Лиама Хеннеси, ирландского крутого парня, полностью погрязли в преступлениях, однако доказательств этому у них пока нет. Когда расследование убийства приводит их к Гиббонсу, они полны решимости отдать его под суд и очистить Чикаго, если это еще возможно.
-Качество: WEB-DLRip
Формат: AVI
Видео: 720x400 (1.80:1), 23.976 fps, XviD build 49 ~1998 kbps avg, 0.29 bit/pixel
Аудио Rus: 48 kHz, AC3 Dolby Digital, 2/0 (L,R) ch, ~192 kbps
Аудио Eng: 48 kHz, AC3 Dolby Digital, 2/0 (L,R) ch, ~192 kbps
-Перевод: opel, Helga
Озвучка: Кубик в Кубе по заказу NovaFilm
Монтаж и работа со звуком: jugin, Alucard
Рип: ЛП
- -Все раздачи сериала-

MI

General
Complete name : H:\Фтп 3\Сериалы\The Chicago Code Season 1 WEB-DLRip\The.Chicago.Code.s01e01.rus.eng.avi
Format : AVI
Format/Info : Audio Video Interleave
File size : 816 MiB
Duration : 47mn 34s
Overall bit rate : 2 397 Kbps
Writing application : VirtualDubMod 1.5.10.2 (build 2540/release)
Writing library : VirtualDubMod build 2540/release
Video
ID : 0
Format : MPEG-4 Visual
Format profile : Advanced Simple@L5
Format settings, BVOP : Yes
Format settings, QPel : No
Format settings, GMC : No warppoints
Format settings, Matrix : Default (MPEG)
Codec ID : XVID
Codec ID/Hint : XviD
Duration : 47mn 34s
Bit rate : 1 999 Kbps
Width : 720 pixels
Height : 400 pixels
Display aspect ratio : 16:9
Frame rate : 23.976 fps
Color space : YUV
Chroma subsampling : 4:2:0
Bit depth : 8 bits
Scan type : Progressive
Bits/(Pixel*Frame) : 0.289
Stream size : 680 MiB (83%)
Writing library : XviD 1.2.0.dev49
Audio #1
ID : 1
Format : AC-3
Format/Info : Audio Coding 3
Mode extension : CM (complete main)
Codec ID : 2000
Duration : 47mn 34s
Bit rate mode : Constant
Bit rate : 192 Kbps
Channel(s) : 2 channels
Channel positions : Front: L R
Sampling rate : 48.0 KHz
Bit depth : 16 bits
Stream size : 65.3 MiB (8%)
Alignment : Split accross interleaves
Interleave, duration : 42 ms (1.00 video frame)
Interleave, preload duration : 500 ms
Audio #2
ID : 2
Format : AC-3
Format/Info : Audio Coding 3
Mode extension : CM (complete main)
Codec ID : 2000
Duration : 47mn 34s
Bit rate mode : Constant
Bit rate : 192 Kbps
Channel(s) : 2 channels
Channel positions : Front: L R
Sampling rate : 48.0 KHz
Bit depth : 16 bits
Stream size : 65.3 MiB (8%)
Alignment : Split accross interleaves
Interleave, duration : 42 ms (1.00 video frame)
Interleave, preload duration : 500 ms

Список серий

  • Пилот(Pilot)
  • Мясная лавка(Hog Butcher)
  • Вопрос доверия(Gillis, Chase & Baby Face)
  • Кабини Грин(Cabrini Green)
  • Жертвенный агнец(O'Leary's Cow)
  • Золотая молодежь(The Gold Coin Kid)
  • Наркокартель и Человек под прицелом(Black Hand and the Shotgun Man)
  • Чикагский зной(Wild Onions)
  • Резня в День Святого Валентина(St. Valentine's Day Massacre)
  • Мосты Сожжены(Bathhouse & Hinky Dink)
  • Игра по сговору(Black Sox)
  • Жребий Брошен(Greylord & Gambat)
  • Месть Майк Ройко(Mike Royko's Revenge)

Скриншоты

Внимание! Раздача ведётся путём добавления новых серий!

Внимание! Раздача ведётся путём добавления новых серий; при каждом добавлении создётся новый торрент. Чтобы начать докачку новой серии, пользователям необходимо сделать следующее: (1) остановить скачивание, (2) удалить старый торрент у себя из клиента (старые серии удалять не надо), (3) скачать новый торрент и запустить его у себя в клиенте вместо старого, при этом указать клиенту путь в старую папку куда и должно происходить скачивание новых серий.
Ваш клиент при этом должен произвести хеширование (проверку) старой папки (если не производит сам - помогите ему сделать это), и будет докачивать только те серии которых у вас ещё нет. Старые серии при этом не удаляются, а продолжают раздаваться!
Eсли вы уже удалили старые серии, то предотвратить повторную закачку старых серий можно, отжав галочку в соответсвующих местах при запуске нового торрента.
Как закачать отдельный файл из торрента или докачать ранее пропущенные файлы торрента!
cкачать торрентом
[mul-tor.ru].t113039.torrent 
Торрент: Зарегистрирован [ 2016-08-11 02:30 ] · 87A823BCAC74DE041739038639B8ACA327EBDB2C

Скачать .torrent

Скачать

52 KB

Статус: проверено
Скачан: 0 раз
Размер: 10,05 GB
 

Лайкните!!! Поддержите торрент трекер!!!



[Профиль] [ЛС]
Показать сообщения:    
Ответить на тему

Текущее время: 16-Янв 12:47

Часовой пояс: UTC + 2



Вы не можете начинать темы
Вы не можете отвечать на сообщения
Вы не можете редактировать свои сообщения
Вы не можете удалять свои сообщения
Вы не можете голосовать в опросах
Вы не можете прикреплять файлы к сообщениям
Вы можете скачивать файлы