Скачать Телешоу (Эпизоды) / Episodes / Сезон 1 / Серия 1-7 (7) (Джеймс Гриффитс) [2011 г., комедия, HDTVRip] (Ozz) торрент с торрент трекера Mul-Tor

Ответить на тему
Статистика раздачи
Размер:  1,57 GB   |    Зарегистрирован:  5 месяцев 7 дней   |    Скачан:  0 раз

Сидов:

Пользователь ULR Отдано Скачано Отдача Загрузка
Гостей (2) 0 - - - -
показаны данные только за текущую сессию
 
 
 
 
 
Автор Сообщение

anarxist14 ®

Пол: Не указан

Стаж: 3 года 10 месяцев

Сообщений: 1

Создавать темы 10-Авг-2016 14:30

[Цитировать]

-Телешоу / (Эпизоды) / Episodes- -Год выпуска: 2011
Страна: США
Жанр: комедия
Продолжительность: ~ 00:30:00
Перевод: Профессиональный (многоголосый, закадровый) Ozz
Режиссер: Джеймс Гриффитс
-В ролях:
Тэмсин Грег, Стефен Мэнгэн, Мирчи Монро, Кэтлин Роуз Перкинс, Ричард Гриффитс, Дэйзи Хаггард, Мэтт ЛеБлан, Джозеф Мэй, Джон Пэнкоу, Уильям Хоуп и др.
-Описание:
Сценаристы муж и жена Шон и Беверли Линкольн получают заманчивое предложение сделать американскую версию своего успешного британского сериала. Полные надежд на новую счастливую жизнь под жарким солнцем Лос-Анджелеса, они еще не подозревают, что готовит им Голливудская машина по созданию ТВ-шоу.
-Качество: HDTVRip
Формат: AVI
Видео кодек: XviD
Аудио кодек: MP3
Видео: 640x352 (1.82:1), 25 fps, XviD MPEG-4 ~ 970 kbps avg, 0.17 bit/pixel
Аудио: 44.1 kHz, MPEG Layer 3, 2 ch, ~128.00 kbps avg
-Релиз:
Перевод: El Brujo
Озвучка: Skleroz, Haidy, Demyanoff--Все раздачи сериала | Сэмпл | IMDb | КиноПоиск--

Список серий

Внимание! Сериал содержит ненормативную лексику.-

1. Эпизод #1
2. Эпизод #2
3. Эпизод #3
4. Эпизод #4
5. Эпизод #5
6. Эпизод #6
7. Эпизод #7
-

Скриншоты

- Как закачать отдельный файл из торрента или докачать ранее пропущенные файлы торрента! -

MI

General
Complete name : C:\Episodes - 01x01 - Episode 1.Ozz.TV.avi
Format : AVI
Format/Info : Audio Video Interleave
File size : 231 MiB
Duration : 29mn 8s
Overall bit rate : 1 109 Kbps
Writing application : VirtualDubMod 1.5.10.2 (build 2540/release)
Writing library : VirtualDub build 32618/release
Video
ID : 0
Format : MPEG-4 Visual
Format profile : Advanced Simple@L5
Format settings, BVOP : Yes
Format settings, QPel : No
Format settings, GMC : No warppoints
Format settings, Matrix : Default (H.263)
Muxing mode : Packed bitstream
Codec ID : XVID
Codec ID/Hint : XviD
Duration : 29mn 8s
Bit rate : 971 Kbps
Width : 640 pixels
Height : 352 pixels
Display aspect ratio : 16:9
Frame rate : 25.000 fps
Resolution : 8 bits
Colorimetry : 4:2:0
Scan type : Progressive
Bits/(Pixel*Frame) : 0.172
Stream size : 202 MiB (88%)
Writing library : XviD 1.2.0.dev47 (UTC 2006-11-01)
Audio
ID : 1
Format : MPEG Audio
Format version : Version 1
Format profile : Layer 3
Codec ID : 55
Codec ID/Hint : MP3
Duration : 29mn 8s
Bit rate mode : Constant
Bit rate : 128 Kbps
Channel(s) : 2 channels
Sampling rate : 44.1 KHz
Stream size : 26.7 MiB (12%)
Alignment : Split accross interleaves
Interleave, duration : 40 ms (1.00 video frame)
Interleave, preload duration : 500 ms

Внимание! Раздача ведётся путём добавления новых серий!

Внимание! Раздача ведётся путём добавления новых серий; при каждом добавлении создётся новый торрент. Чтобы начать докачку новой серии, пользователям необходимо сделать следующее:
(1) остановить скачивание,
(2) удалить старый торрент у себя из клиента (старые серии удалять не надо),
(3) скачать новый торрент и запустить его у себя в клиенте вместо старого, при этом указать клиенту путь в старую папку куда и должно происходить скачивание новых серий.
Ваш клиент при этом должен произвести хеширование (проверку) старой папки (если не производит сам - помогите ему сделать это), и будет докачивать только те серии которых у вас ещё нет. Старые серии при этом не удаляются, а продолжают раздаваться!
Eсли вы уже удалили старые серии, то предотвратить повторную закачку старых серий можно, отжав галочку в соответсвующих местах при запуске нового торрента.
-- cкачать торрентом
[mul-tor.ru].t112820.torrent 
Торрент: Зарегистрирован [ 2016-08-10 14:30 ] · 801AD6184F4E5BF9268AB5AAC8DACB3EA4DD4C4C

Скачать .torrent

Скачать

17 KB

Статус: проверено
Скачан: 0 раз
Размер: 1,57 GB
 

Лайкните!!! Поддержите торрент трекер!!!



[Профиль] [ЛС]
Показать сообщения:    
Ответить на тему

Текущее время: 18-Янв 11:59

Часовой пояс: UTC + 2



Вы не можете начинать темы
Вы не можете отвечать на сообщения
Вы не можете редактировать свои сообщения
Вы не можете удалять свои сообщения
Вы не можете голосовать в опросах
Вы не можете прикреплять файлы к сообщениям
Вы можете скачивать файлы