Скачать Мачо Мэн / Macho Man (Кристоф Валь / Christof Wahl) [2016 г., Драма, Мелодрама, Комедия] HDRip (MVO) торрент с торрент трекера Mul-Tor

Ответить на тему
Статистика раздачи
Размер:  1,46 GB   |    Зарегистрирован:  7 месяцев 22 дня   |    Скачан:  3 раза

Сидов:

Пользователь ULR Отдано Скачано Отдача Загрузка
Гостей (386) 0 - - - -

Личеров:

Пользователь % Отдано Скачано Отдача Загрузка
Гостей (100) 0 - - - -
показаны данные только за текущую сессию
 
 
 
 
 
Автор Сообщение

Allep ®

Пол: Мужской

Стаж: 6 лет 10 месяцев

Сообщений: 5616

Откуда: Москва

Создавать темы 03-Авг-2016 12:00

[Цитировать]

Мачо Мэн / Macho Man Дата выхода: 2016
Премьера (Мир): 29 октября 2015, Германия
Российское название: Мачо Мэн
Оригинальное название: Macho Man
Жанр: Драма, Мелодрама, Комедия
Режиссёр: Кристоф Валь / Christof Wahl
В ролях: Дар Салим, Айлин Тецель, Нора Чирнер, Владимир Бурлаков, Кристиан Ульмен, Самуэль Финци, Аксель Штайн, Виктория Майер, Ведат Эринчин, Петер Прагер
О фильме: Даниэль — изнеженный цивилизацией бюргер, который не слишком избалован женским вниманием. Но однажды на отдыхе в Турции на него запала сногсшибательная местная красотка. И все бы хорошо, но чтобы жениться на ней и увезти в Германию, он должен произвести правильное впечатление на её семью, а для этого ему придется пройти ускоренный курс, чтобы предстать перед ними настоящим мачо.

Кинокомпания: Bavaria Pictures GmbH, Conradfilm, Erfttal Film
Страна: Германия
Продолжительность: 01:34:12
Перевод: Профессиональный (многоголосый закадровый) [Официальный звук]
Аудио кодек: АС3
Видео кодек: XviD
Формат: Avi (Совместимо с бытовыми плеерами, 1/3 DVD5)
Качество: HDRip.
Видео: 720x304 (2.37:1), 24.00 fps, XviD Mpeg-4 build 65 ~1915 kbps avg, 0.365 bit/pixel
Аудио: Russian: 48 kHz, AC3 Dolby Digital, 2/0 (L, R) ch stereo, ~192 kbps;
Язык: Русский.

Мачо Мэн / Macho Man 2015 трейлер

MediaInfo

General
Format : AVI
Format/Info : Audio Video Interleave
File size : 1.46 GiB
Duration : 1h 38mn
Overall bit rate : 2 117 Kbps
Writing application : VirtualDubMod 1.5.10.3 | www.virtualdub-fr.org || (build 2550/release)
Writing library : VirtualDubMod build 2550/release
Video
ID : 0
Format : MPEG-4 Visual
Format profile : Advanced Simple@L5
Format settings, BVOP : 1
Format settings, QPel : No
Format settings, GMC : No warppoints
Format settings, Matrix : Custom
Codec ID : XVID
Codec ID/Hint : XviD
Duration : 1h 38mn
Bit rate : 1 915 Kbps
Width : 720 pixels
Height : 304 pixels
Display aspect ratio : 2.35:1
Frame rate : 24.000 fps
Color space : YUV
Chroma subsampling : 4:2:0
Bit depth : 8 bits
Scan type : Progressive
Compression mode : Lossy
Bits/(Pixel*Frame) : 0.365
Stream size : 1.32 GiB (90%)
Writing library : XviD 65
Audio
ID : 1
Format : AC-3
Format/Info : Audio Coding 3
Mode extension : CM (complete main)
Format settings, Endianness : Big
Codec ID : 2000
Duration : 1h 38mn
Bit rate mode : Constant
Bit rate : 192 Kbps
Channel(s) : 2 channels
Channel positions : Front: L R
Sampling rate : 48.0 KHz
Frame rate : 31.250 fps (1536 spf)
Compression mode : Lossy
Stream size : 135 MiB (9%)
Alignment : Split accross interleaves
Interleave, duration : 42 ms (1.00 video frame)
Interleave, preload duratio : 500 ms

Скриншоты










cкачать торрентом
[mul-tor.ru].t109974.torrent 
Торрент: Зарегистрирован [ 2016-08-03 12:00 ] · B2306CBFC16D73B8D9ED77BD15792AB193F50BEE

Скачать .torrent

Скачать

15 KB

Статус: проверено
Скачан: 3 раз
Размер: 1,46 GB
 

Лайкните!!! Поддержите торрент трекер!!!



[Профиль] [ЛС]
Показать сообщения:    
Ответить на тему

Текущее время: 26-Мар 03:31

Часовой пояс: UTC + 2



Вы не можете начинать темы
Вы не можете отвечать на сообщения
Вы не можете редактировать свои сообщения
Вы не можете удалять свои сообщения
Вы не можете голосовать в опросах
Вы не можете прикреплять файлы к сообщениям
Вы можете скачивать файлы