Скачать Родная кровь / Bleeding Heart (Дайан Белл / Diane Bell) [2015 г., Драма] Web-DLRip (MVO) торрент с торрент трекера Mul-Tor

Ответить на тему
Статистика раздачи
Размер:  1,36 GB   |    Зарегистрирован:  5 месяцев 15 дней   |    Скачан:  5 раз

Сидов:

Пользователь ULR Отдано Скачано Отдача Загрузка
Гостей (95) 0 - - - -

Личеров:

Пользователь % Отдано Скачано Отдача Загрузка
Гостей (48) 0 - - - -
показаны данные только за текущую сессию
 
 
 
 
 
Автор Сообщение

Allep ®

Пол: Мужской

Стаж: 6 лет 8 месяцев

Сообщений: 5616

Откуда: Москва

Создавать темы 02-Авг-2016 13:31

[Цитировать]

Родная кровь / Bleeding Heart«Tied by blood. Bound by lies» Дата выхода: 2015
Премьера (Мир): 16 апреля 2015, США, Кинофестиваль «Трайбека»
Российское название: Родная кровь
Оригинальное название: Bleeding Heart
Жанр: Драма
Режиссёр: Дайан Белл / Diane Bell
В ролях: Джессика Бил, Заша Мэмет, Лэйси Алессандра, Маурицио Гомес Аморетти, Джо Андерсон, Нандини Бапат, Икси Букер, Мишель Брю, Кейт Бёртон, Josh Butcher
О фильме: Мэй — инструктор по йоге, в её жизни все гладко и предсказуемо: внимательный бойфренд, любимая работа, большая квартира в престижном районе. Однажды она узнает, что у нее есть сестра, а так как сама она воспитывалась в приемной семье, о своих родных раньше она ничего не знала. Взволнованная этой новостью она встречается с сестрой, в которой с первого же взгляда чувствует родную душу. Но есть проблема: ее сестра росла совсем в других условиях, чем она. Она из бедных кварталов, зарабатывает на жизнь проституцией, а ее парень — её же сутенер. И кто знает, может она просто аферистка, которая не прочь воспользоваться ситуацией и прикарманить денежки Мэй…

Кинокомпания: Fido Features, Super Crispy Entertainment
Страна: США
Продолжительность: 01:28:04
Перевод: Профессиональный (многоголосый закадровый) [Официальный звук]
Аудио кодек: АС3
Видео кодек: XviD
Формат: Avi (Совместимо с бытовыми плеерами, 1/3 DVD5)
Качество: Web-DLRip.
Видео: 720x304 (2.37:1), 23.976 fps, XviD Mpeg-4 build 66 ~1753 kbps avg, 0.334 bit/pixel
Аудио:
1. Russian: 48 kHz, AC3 Dolby Digital, 2/0 (L, R) ch stereo, ~224 kbps;
2. English: 48 kHz, AC3 Dolby Digital, 2/0 (L, R) ch stereo, ~224 kbps;
Язык: Русский, Английский (Оригинал).

Bleeding Heart Official Trailer #1 (2015) - Jessica Biel, Zosia Mamet Movie HD

MediaInfo

General
Complete name : E:\Downloads\Rodnaya.krovj.2O15.P.WEBDLRip.avi
Format : AVI
Format/Info : Audio Video Interleave
File size : 1.36 GiB
Duration : 1h 27mn
Overall bit rate : 2 215 Kbps
Writing application : VirtualDubMod 1.5.10.2 (build 2540/release)
Writing library : VirtualDubMod build 2540/release
Video
ID : 0
Format : MPEG-4 Visual
Format profile : Advanced Simple@L5
Format settings, BVOP : 2
Format settings, QPel : No
Format settings, GMC : No warppoints
Format settings, Matrix : Default (H.263)
Muxing mode : Packed bitstream
Codec ID : XVID
Codec ID/Hint : XviD
Duration : 1h 27mn
Bit rate : 1 753 Kbps
Width : 720 pixels
Height : 304 pixels
Display aspect ratio : 2.35:1
Frame rate : 23.976 fps
Color space : YUV
Chroma subsampling : 4:2:0
Bit depth : 8 bits
Scan type : Progressive
Compression mode : Lossy
Bits/(Pixel*Frame) : 0.334
Stream size : 1.08 GiB (79%)
Writing library : XviD 66
Audio #1
ID : 1
Format : AC-3
Format/Info : Audio Coding 3
Mode extension : CM (complete main)
Format settings, Endianness : Big
Codec ID : 2000
Duration : 1h 27mn
Bit rate mode : Constant
Bit rate : 224 Kbps
Channel count : 2 channels
Channel positions : Front: L R
Sampling rate : 48.0 KHz
Bit depth : 16 bits
Compression mode : Lossy
Stream size : 141 MiB (10%)
Alignment : Split accross interleaves
Interleave, duration : 42 ms (1.00 video frame)
Interleave, preload duration : 500 ms
Audio #2
ID : 2
Format : AC-3
Format/Info : Audio Coding 3
Mode extension : CM (complete main)
Format settings, Endianness : Big
Codec ID : 2000
Duration : 1h 27mn
Bit rate mode : Constant
Bit rate : 224 Kbps
Channel count : 2 channels
Channel positions : Front: L R
Sampling rate : 48.0 KHz
Bit depth : 16 bits
Compression mode : Lossy
Stream size : 141 MiB (10%)
Alignment : Split accross interleaves
Interleave, duration : 42 ms (1.00 video frame)
Interleave, preload duration : 500 ms

Скриншоты




cкачать торрентом
[mul-tor.ru].t109620.torrent 
Торрент: Зарегистрирован [ 2016-08-02 13:31 ] · DFD5F15D8BA88BAADD5A41288CF6A6C38E2B9BF6

Скачать .torrent

Скачать

2 KB

Статус: проверено
Скачан: 5 раз
Размер: 1,36 GB
 

Лайкните!!! Поддержите торрент трекер!!!



[Профиль] [ЛС]
Показать сообщения:    
Ответить на тему

Текущее время: 17-Янв 15:01

Часовой пояс: UTC + 2



Вы не можете начинать темы
Вы не можете отвечать на сообщения
Вы не можете редактировать свои сообщения
Вы не можете удалять свои сообщения
Вы не можете голосовать в опросах
Вы не можете прикреплять файлы к сообщениям
Вы можете скачивать файлы