Скачать Ответ / The Answer (Икбал Ахмед / Iqbal Ahmed) [2015 г., Фантастика, Боевик, Триллер] Web-DLRip (MVO) торрент с торрент трекера Mul-Tor

Ответить на тему
Статистика раздачи
Размер:  1,37 GB   |    Зарегистрирован:  5 месяцев 18 дней   |    Скачан:  4 раза

Сидов:

Пользователь ULR Отдано Скачано Отдача Загрузка
Гостей (726) 0 - - - -

Личеров:

Пользователь % Отдано Скачано Отдача Загрузка
Гостей (290) 0 - - - -
показаны данные только за текущую сессию
 
 
 
 
 
Автор Сообщение

Allep ®

Пол: Мужской

Стаж: 6 лет 8 месяцев

Сообщений: 5616

Откуда: Москва

Создавать темы 30-Июл-2016 14:20

[Цитировать]

Ответ / The Answer Дата выхода: 2015
Премьера (Мир): 11 апреля 2015, Нидерланды, Кинофестиваль Imagine
Российское название: Ответ
Оригинальное название: The Answer
Жанр: Фантастика, Боевик, Триллер
Режиссёр: Икбал Ахмед / Iqbal Ahmed
В ролях: Пабло Шрайбер, Джон Красински, Тоби Стивенс, Дэйв Гвинтоли, Макс Мартини, Фредди Строма, Джеймс Бадж Дейл, Дэвид Денман, Иви Джордж, Дэвид Костабайл, Пейман Моади, Ренн Шмидт, Доминик Фумуса, Деметриус Гросс, Алексия Балье
О фильме: 2012 год. Бенгази, Ливия. Группа террористов решает «отпраздновать» события 11 сентября нападением на американское посольство. Шестерке бойцов из элитного спецотряда приказано вмешаться только в крайнем случае. Но когда под угрозой десятки жизней, долг и совесть берут верх над субординацией. И мужественные солдаты без колебаний вступают в бой с яростной группировкой боевиков. Бой, который для всех шестерых, скорее всего, станет последним.

Кинокомпания: Schoolfield Media
Страна: США
Продолжительность: 01:23:01
Перевод: Любительский (многоголосый закадровый) [Parovoz Production]
Аудио кодек: АС3
Видео кодек: XviD
Формат: Avi (Совместимо с бытовыми плеерами, 1/3 DVD5)
Качество: Web-DLRip.
Видео: 720x304 (2.37:1), 23.976 fps, XviD Mpeg-4 build 50 ~1963 kbps avg, 0.374 bit/pixel
Аудио: Russian: 48 kHz, AC3 Dolby Digital, 2/0 (L, R) ch stereo, ~384 kbps;
Язык: Русский.

Ответы / The Answers - 2015

MediaInfo

General
Complete name : C:\Фильмы\The.Awnser.2015.WEB.DLRip.avi
Format : AVI
Format/Info : Audio Video Interleave
File size : 1.37 GiB
Duration : 1h 23mn
Overall bit rate : 2 357 Kbps
Writing application : VirtualDubMod 1.5.10.2 (build 2540/release)
Writing library : VirtualDubMod build 2540/release
Video
ID : 0
Format : MPEG-4 Visual
Format profile : Advanced Simple@L5
Format settings, BVOP : 2
Format settings, QPel : No
Format settings, GMC : No warppoints
Format settings, Matrix : Custom
Codec ID : XVID
Codec ID/Hint : XviD
Duration : 1h 23mn
Bit rate : 1 964 Kbps
Width : 720 pixels
Height : 304 pixels
Display aspect ratio : 2.35:1
Frame rate : 23.976 fps
Color space : YUV
Chroma subsampling : 4:2:0
Bit depth : 8 bits
Scan type : Progressive
Compression mode : Lossy
Bits/(Pixel*Frame) : 0.374
Stream size : 1.14 GiB (83%)
Writing library : XviD 1.2.1 (UTC 2008-12-04)
Audio
ID : 1
Format : AC-3
Format/Info : Audio Coding 3
Mode extension : CM (complete main)
Format settings, Endianness : Big
Codec ID : 2000
Duration : 1h 23mn
Bit rate mode : Constant
Bit rate : 384 Kbps
Channel(s) : 2 channels
Channel positions : Front: L R
Sampling rate : 48.0 KHz
Compression mode : Lossy
Stream size : 228 MiB (16%)
Alignment : Split accross interleaves
Interleave, duration : 42 ms (1.00 video frame)
Interleave, preload duration : 500 ms

Скриншоты












cкачать торрентом
[mul-tor.ru].t108212.torrent 
Торрент: Зарегистрирован [ 2016-07-30 14:20 ] · A95CCD6006071A6F81DA4C80E3DE4F039DB452FC

Скачать .torrent

Скачать

14 KB

Статус: проверено
Скачан: 4 раз
Размер: 1,37 GB
 

Лайкните!!! Поддержите торрент трекер!!!



[Профиль] [ЛС]
Показать сообщения:    
Ответить на тему

Текущее время: 17-Янв 15:01

Часовой пояс: UTC + 2



Вы не можете начинать темы
Вы не можете отвечать на сообщения
Вы не можете редактировать свои сообщения
Вы не можете удалять свои сообщения
Вы не можете голосовать в опросах
Вы не можете прикреплять файлы к сообщениям
Вы можете скачивать файлы