Скачать Идеальный выбор / The Perfect Match (Билле Вудрафф / Bille Woodruff) [2016 г., Мелодрама, Комедия] HDRip (MVO) торрент с торрент трекера Mul-Tor

Ответить на тему
Статистика раздачи
Размер:  1,46 GB   |    Зарегистрирован:  7 месяцев 25 дней   |    Скачан:  1 раз
Сидов:  368  [  0 KB/s  ]   Личеров:  136  [  0 KB/s  ]   Подробная статистика пиров
 
 
 
 
Автор Сообщение

Allep ®

Пол: Мужской

Стаж: 6 лет 10 месяцев

Сообщений: 5616

Откуда: Москва

Создавать темы 30-Июл-2016 12:38

[Цитировать]

Идеальный выбор / The Perfect Match«It's what everyone's looking for» Дата выхода: 2016
Премьера (Мир): 7 марта 2016, США, Голливуд, Калифорния
Российское название: Идеальный выбор
Оригинальное название: The Perfect Match
Жанр: Мелодрама, Комедия
Режиссёр: Билле Вудрафф / Bille Woodruff
В ролях: Терренс Дженкинс, Пола Пэттон, Кали Хоук, Лорен Лондон, Брэнди Норвуд, Кэсси, Дональд Фэйсон, Роберт Кристофер Райли, Layla Jama, Даша Поланко
О фильме: Не верящий в длительные отношения ловелас Чарли заключает пари со своими друзьями, которые убеждены, что он непременно влюбится в женщину, если проведет с ней хотя бы месяц. Вскоре уверенный в своей правоте Чарли встречает очаровательную и загадочную Еву. Поначалу он был уверен, что это будет лишь очередная ничего не значащая интрижка, но в какой-то момент понял, что хочет чего-то большего...

Кинокомпания: Codeblack Films, Jorva Entertainment Productions
Страна: США
Продолжительность: 01:35:53
Перевод: Любительский (многоголосый закадровый) [GreenРай Studio]
Аудио кодек: АС3
Видео кодек: XviD
Формат: Avi (Совместимо с бытовыми плеерами, 1/3 DVD5)
Качество: HDRip.
Видео: 720x400 (1.80:1), 23.976 fps, XviD Mpeg-4 build 50 ~1716 kbps avg, 0.256 bit/pixel
Аудио: Russian: 48 kHz, AC3 Dolby Digital, 3/2 (L,C,R,l,r) + LFE ch, ~448 kbps;
Язык: Русский.

Идеальный выбор (2016) Трейлер №1

MediaInfo

General
Complete name : E:\Downloads\The.Perfect.Match.2016.P.HDRip.1.46GB.GIPERWAREZ.avi
Format : AVI
Format/Info : Audio Video Interleave
File size : 1.46 GiB
Duration : 1h 35mn
Overall bit rate : 2 173 Kbps
Writing application : VirtualDubMod 1.5.10.2 (build 2540/release)
Writing library : VirtualDubMod build 2540/release
Video
ID : 0
Format : MPEG-4 Visual
Format profile : Advanced Simple@L5
Format settings, BVOP : 2
Format settings, QPel : No
Format settings, GMC : No warppoints
Format settings, Matrix : Default (MPEG)
Codec ID : XVID
Codec ID/Hint : XviD
Duration : 1h 35mn
Bit rate : 1 716 Kbps
Width : 720 pixels
Height : 400 pixels
Display aspect ratio : 16:9
Frame rate : 23.976 fps
Color space : YUV
Chroma subsampling : 4:2:0
Bit depth : 8 bits
Scan type : Progressive
Compression mode : Lossy
Bits/(Pixel*Frame) : 0.256
Stream size : 1.09 GiB (75%)
Writing library : XviD 1.2.1 (UTC 2008-12-04)
Audio
ID : 1
Format : AC-3
Format/Info : Audio Coding 3
Mode extension : CM (complete main)
Format settings, Endianness : Big
Codec ID : 2000
Duration : 1h 35mn
Bit rate mode : Constant
Bit rate : 448 Kbps
Channel count : 6 channels
Channel positions : Front: L C R, Side: L R, LFE
Sampling rate : 48.0 KHz
Bit depth : 16 bits
Compression mode : Lossy
Stream size : 307 MiB (21%)
Alignment : Split accross interleaves

Скриншоты












cкачать торрентом
[mul-tor.ru].t108191.torrent 
Торрент: Зарегистрирован [ 2016-07-30 12:38 ] · CBCED1C460B89703E63305E69B6E631298E6F3B6

Скачать .torrent

Скачать

15 KB

Статус: проверено
Скачан: 1 раз
Размер: 1,46 GB
 

Лайкните!!! Поддержите торрент трекер!!!



[Профиль] [ЛС]
Показать сообщения:    
Ответить на тему

Текущее время: 25-Мар 11:49

Часовой пояс: UTC + 2



Вы не можете начинать темы
Вы не можете отвечать на сообщения
Вы не можете редактировать свои сообщения
Вы не можете удалять свои сообщения
Вы не можете голосовать в опросах
Вы не можете прикреплять файлы к сообщениям
Вы можете скачивать файлы