Скачать Анархисты / Les anarchistes (Эли Важеман / Elie Wajeman) [2015 г., Драма] Web-DLRip (MVO) торрент с торрент трекера Mul-Tor

Ответить на тему
Статистика раздачи
Размер:  1,45 GB   |    Зарегистрирован:  5 месяцев 23 дня   |    Скачан:  1 раз

Сидов:

Пользователь ULR Отдано Скачано Отдача Загрузка
Гостей (152) 0 - - - -

Личеров:

Пользователь % Отдано Скачано Отдача Загрузка
Гостей (39) 0 - - - -
показаны данные только за текущую сессию
 
 
 
 
 
Автор Сообщение

Allep ®

Пол: Мужской

Стаж: 6 лет 8 месяцев

Сообщений: 5616

Откуда: Москва

Создавать темы 25-Июл-2016 10:58

[Цитировать]

Анархисты / Les anarchistes Дата выхода: 2015
Премьера (Мир): 15 мая 2015, Франция, Каннский кинофестиваль
Премьера (Россия): 25 февраля 2016, «Ракета Релизинг»
Российское название: Анархисты
Оригинальное название: Les anarchistes
Жанр: Драма
Режиссёр: Эли Важеман / Elie Wajeman
В ролях: Тахар Рахим, Адель Экзаркопулос, Сванн Арло, Гийом Гуи, Карим Леклу, Сара Лепикар, Седрик Кан, Эмили де Прессак, Aurélia Poirier, Audrey Bonnet, Thibault Lacroix, Arieh Worthalter, Simon Bellouard, David Geselson, Olivier Desautel, Louise Delage, André Rabas
О фильме: Париж, 1899 год. Выросший в нищете сирота, а ныне командир отделения жандармерии Жан Альбертини должен проникнуть в группу анархистов. Для него это реальная возможность подняться по карьерной лестнице. Но чем дальше, тем больше у него возникает сомнений. По мере того как Жан составляет полицеские рапорты на преступную группировку для своего начальника Гаспара, он сам начинает все больше симпатизировать им.

Кинокомпания: 24 Mai Productions, A Plus Image 5, Canal+ [fr], Centre National de la Cinématographie (CNC), Ciné, France 2 Cinéma, France Télévisions, La Banque Postale Image 8, Mars Films, Région Ile-de-France, Sofica Manon 5, SoficinГ©ma 11
Страна: Франция
Продолжительность: 01:36:27
Перевод: Профессиональный (многоголосый закадровый) [официальный звук]
Аудио кодек: АС3
Видео кодек: XviD
Формат: Avi (Совместимо с бытовыми плеерами, 1/3 DVD5)
Качество: Web-DLRip.
Видео: 720x320 (2.25:1), 25.00 fps, XviD Mpeg-4 build 73 ~1950 kbps avg, 0.339 bit/pixel
Аудио: Russian: 48 kHz, AC3 Dolby Digital, 2/0 (L, R) ch stereo, ~192 kbps;
Язык: Русский.

Анархисты - Русский Трейлер (2016)

Рецензия с КиноПоиск.ru от Kesha Chejov

Ради опасности и любви
Данная картина мне понравилась. Не скажу, что произвела фурор или переворот в моем сознание. Но как верно отметил режиссер основным субъектом должны были стать не политические действия разворачиваемые в данном произведение, а именно межличностные отношения между людьми.
Анархисты — тоже люди. Они способны чувствовать, любить, мечтать и разочаровываться. Вообщем, обладают всеми теми качествами, что есть у всех других людей. Вот только видят они мир не так как обыватели или буржуазный класс. Они видят все его пороки и смертельную нерациональность государственной машины. Отсюда и их желание бороться. А особо отверженные борются до самого конца. Ибо вступая на этот путь, конец становится очевидным. Что и не раз отмечали главные герои фильма. Они знали на что идут и были к этому готовы. Свобода или Смерть — как один из лозунгов анархистов.
Прочитав описание, я думал что действия фильма будут посвящены изменению человеческого сознания. Что властный полицай одумается и осознает в сердце своем что же есть все таки классовая борьба. Но как мне показалось это было не так очевидно, если так вообще было. Французы опять перевели все в романтическую сферу. Любовь — она меняет. Как и поменяла, кардинально, нашего главного героя. Всегда в таких фильмах очень удручает то, что герой полюбив очень сильно девушку все равно продолжает делать некую гадость на которую он был послан с самого начала. Вот как пример, фильм Аватар. То же был заслон, то же влюбился, то же изменился. Но если Аватар продолжает бороться до конца. То наш герой опускает руки.
Интересен так же последний эпизод. Главный герой хоть и старался на благо «Республики». Так сам и попал в эти самые лапы «Республики».
Всегда после просмотра фильма или прочтения книги, я спрашиваю себя: -«Что же все таки хотел сказать автор?». Что любовь меняет? Да, возможно. Меняет сильно и не заметно, больно и навсегда. И второй посыл это то, что убеждения остаются до самой смерти. Не смотря ни на пытки, угрозы, нищету и эксплуатацию.

MediaInfo

Общее
Полное имя : C:\Anarhisty 2015 WEB-DLRip.avi
Формат : AVI
Формат/Информация : Audio Video Interleave
Размер файла : 1,45 Гбайт
Продолжительность : 1 ч. 36 м.
Общий поток : 2150 Кбит/сек
Видео
Идентификатор : 0
Формат : MPEG-4 Visual
Профиль формата : Advanced Simple@L5
Параметр BVOP формата : 1
Параметр QPel формата : Нет
Параметр GMC формата : Без точки перехода
Параметр матрицы формата : Выборочная
Идентификатор кодека : XVID
Идентификатор кодека/Подсказка : XviD
Продолжительность : 1 ч. 36 м.
Битрейт : 1950 Кбит/сек
Ширина : 720 пикселей
Высота : 320 пикселей
Соотношение сторон : 2,25:1
Частота кадров : 25,000 кадров/сек
Цветовое пространство : YUV
Субдискретизация насыщенности : 4:2:0
Битовая глубина : 8 бит
Тип развёртки : Прогрессивная
Метод сжатия : С потерями
Бит/(Пиксели*Кадры) : 0.339
Размер потока : 1,31 Гбайт (91%)
Библиотека кодирования : XviD 73
Аудио
Идентификатор : 1
Формат : AC-3
Формат/Информация : Audio Coding 3
Расширение режима : CM (complete main)
Параметр Endianness формата : Big
Идентификатор кодека : 2000
Продолжительность : 1 ч. 36 м.
Вид битрейта : Постоянный
Битрейт : 192 Кбит/сек
Каналы : 2 канала
Расположение каналов : Front: L R
Частота : 48,0 КГц
Частота кадров : 31,250 кадров/сек (1536 spf)
Метод сжатия : С потерями
Размер потока : 132 Мбайт (9%)
Выравнивание : Соединение по промежуткам
Продолжительность промежутка : 64 мс. (1,60 видеокадра)
Время предзагрузки промежутка : 192 мс.
Заголовок : Official

Скриншоты







cкачать торрентом
[mul-tor.ru].t105467.torrent 
Торрент: Зарегистрирован [ 2016-07-25 10:58 ] · 098DBE5C521CA8CB1A5517B11DB9EBD08FC77EF2

Скачать .torrent

Скачать

15 KB

Статус: проверено
Скачан: 1 раз
Размер: 1,45 GB
 

Лайкните!!! Поддержите торрент трекер!!!



[Профиль] [ЛС]
Показать сообщения:    
Ответить на тему

Текущее время: 17-Янв 15:01

Часовой пояс: UTC + 2



Вы не можете начинать темы
Вы не можете отвечать на сообщения
Вы не можете редактировать свои сообщения
Вы не можете удалять свои сообщения
Вы не можете голосовать в опросах
Вы не можете прикреплять файлы к сообщениям
Вы можете скачивать файлы