Скачать Крик / Scream / Сезон: 2 / Серии: 1-11 из 12 (Ли Джаньяк, Джулиус Рамсей, Джеми Трэвис) [2016 г., Ужасы, криминал, детектив, WEB-DLRip] MVO (LostFilm) + Original торрент с торрент трекера Mul-Tor

Ответить на тему
Статистика раздачи
Размер:  5,91 GB   |    Зарегистрирован:  6 месяцев 10 дней   |    Скачан:  0 раз

Сидов:

Пользователь ULR Отдано Скачано Отдача Загрузка
Гостей (28) 0 - - - -

Личеров:

Пользователь % Отдано Скачано Отдача Загрузка
Гостей (41) 0 - - - -
показаны данные только за текущую сессию
 
 
 
 
 
Автор Сообщение

P.N.L. ®

Пол: Женский

Стаж: 3 года 10 месяцев

Сообщений: 1039

Создавать темы 04-Июн-2016 09:29

[Цитировать]

-- --Крик | Scream-- Год выпуска: 2016
Страна: США
Жанр: Ужасы, криминал, детектив
Продолжительность: ~ 00:43:00-Перевод: Профессиональный (многоголосый закадровый) | LostFilm-Режиссёр: Ли Джаньяк, Джулиус Рамсей, Джеми Трэвис-В ролях: Уилла Фицджералд, Бекс Тейлор-Клаус, Карлсон Янг, Джон Карна, Коннор Вейл, Бобби Кампо, Амадеус Серафини, Том Мэден, Трэйси Миддендорф, Майк Вони др.-Описание: То, что начиналось как обычное видео на YouTube, вскоре оборачивается проблемами для подростков Лейквуда и служит катализатором для убийства, которое открывает окно в тяжелое прошлое города.- --Качество: WEB-DLRip
Формат: AVI
Видео: XviD, 720x400 (16:9), 23,976 fps, ~ 1400 kbps
Аудио: MP3, 48 kHz, 2 ch, 128 kbps - Rus
Аудио: MP3, 48 kHz, 2 ch, 128 kbps - Eng
Субтитры: отсутствуют-

Список серий

01. Я знаю, что вы делали прошлым летом (I Know What You Did Last Summer)
02. Психо (Psycho)
03. на жертву (Vacancy)
04. С днём рождения меня (Happy Birthday to Me)
05. Рассвет мертвецов (Dawn of the Dead)
06. Джиперс Криперс (Jeepers Creepers)
07. Впусти меня (Let the Right One In)
08. Деревня проклятых (Village of the Damned)
09. Приют (The Orphanage)
10. Исчезновение (The Vanishing)
11. Небесные создания (Heavenly Creatures )

Релиз

Перевод: LostFilm
чистый рип, без заставки и логотипа

Рецензия от КиноПоиск

«Ты переживаешь за них, любишь их, так что, когда их жестоко убивают, тебе больно».
Я знала об этом сериале уже давно, да вот только все руки не доходили посмотреть. И вот сегодня утром я решила, почему бы и не посмотреть «Крик», о котором так хорошо отзывались мои друзья? И скажу вам честно — я ни капли не пожалела, что увидела это.
Признаюсь сразу, я не смотрела сами фильмы, поэтому не могу сравнить фильмы с сериалом. Но вот сам сериал для меня — это нечто. Меня затянуло с первых же минут просмотра, сюжет просто прекрасен, непредсказуем и, черт возьми, безумно интересен! Так и хочется узнать, кто же все-таки скрывается под этой маской?
Не могу обойти стороной и актерский состав. Очень хотелось видеть Беллу Торн и дальше в сериале. Но как решили сценаристы, так и решили. Тем не менее, этот «кусочек» она сыграла очень даже хорошо. Думаю, из этой девушки выйдет хорошая актриса. Уилла Фицджералд, играющая Эмму, мне нравится как актриса, вот только персонаж почему-то отталкивает. Не могу обойти красивенькую блондинку, которая украшает сериал — Карлос Янг. Прекрасная актриса, чудесная внешность, довольно-таки интересный персонаж. Что еще нужно? Но уж кого я точно не обойду стороной, так это Джона Карна, который играет очаровательного Ноа. Актер сам по себе отличный и милый. Да, любит все-таки MTV персонажей, которые привлекают зрителя не только своим забавным характером, но еще и внешностью. Что Стайлз Стилински в «Волчонке», что здесь, в «Крике» Ноа Фостер.
В общем, я в восторге от данного телесериала, и поэтому ставлю ему твердую:
10 из 10

MediaInfo

Код:
Общее
Полное имя                               : D:\загрузки\Scream (Seson 02) LostFilm\Scream.S02E01.rus.eng.LostFilm.avi
Формат                                   : AVI
Формат/Информация                        : Audio Video Interleave
Размер файла                             : 550 Мбайт
Продолжительность                        : 43 м.
Общий поток                              : 1760 Кбит/сек
Программа кодирования                    : VirtualDubMod 1.5.10.3 | www.virtualdub-fr.org || (build 2550/release)
Библиотека кодирования                   : VirtualDubMod build 2550/release
Видео
Идентификатор                            : 0
Формат                                   : MPEG-4 Visual
Профиль формата                          : Advanced Simple@L5
Параметр BVOP формата                    : 1
Параметр QPel формата                    : Нет
Параметр GMC формата                     : Без точки перехода
Параметр матрицы формата                 : Default (MPEG)
Идентификатор кодека                     : XVID
Идентификатор кодека/Подсказка           : XviD
Продолжительность                        : 43 м.
Битрейт                                  : 1490 Кбит/сек
Ширина                                   : 720 пикселей
Высота                                   : 400 пикселей
Соотношение сторон                       : 16:9
Частота кадров                           : 23,976 кадра/сек
Цветовое пространство                    : YUV
Субдискретизация насыщенности            : 4:2:0
Битовая глубина                          : 8 бит
Тип развёртки                            : Прогрессивная
Метод сжатия                             : С потерями
Бит/(Пиксели*Кадры)                      : 0.216
Размер потока                            : 466 Мбайт (85%)
Библиотека кодирования                   : XviD 73
Аудио #1
Идентификатор                            : 1
Формат                                   : MPEG Audio
Версия формата                           : Version 1
Профиль формата                          : Layer 3
Режим                                    : Joint stereo
Расширение режима                        : MS Stereo
Идентификатор кодека                     : 55
Идентификатор кодека/Подсказка           : MP3
Продолжительность                        : 43 м.
Вид битрейта                             : Постоянный
Битрейт                                  : 128 Кбит/сек
Каналы                                   : 2 канала
Частота                                  : 48,0 КГц
Метод сжатия                             : С потерями
Размер потока                            : 40,0 Мбайт (7%)
Выравнивание                             : Соединение по промежуткам
Продолжительность промежутка             : 42  мс. (1,00 видеокадр)
Время предзагрузки промежутка            : 504  мс.
Аудио #2
Идентификатор                            : 2
Формат                                   : MPEG Audio
Версия формата                           : Version 1
Профиль формата                          : Layer 3
Режим                                    : Joint stereo
Расширение режима                        : MS Stereo
Идентификатор кодека                     : 55
Идентификатор кодека/Подсказка           : MP3
Продолжительность                        : 43 м.
Вид битрейта                             : Постоянный
Битрейт                                  : 128 Кбит/сек
Каналы                                   : 2 канала
Частота                                  : 48,0 КГц
Метод сжатия                             : С потерями
Размер потока                            : 40,0 Мбайт (7%)
Выравнивание                             : Соединение по промежуткам
Продолжительность промежутка             : 42  мс. (1,00 видеокадр)
Время предзагрузки промежутка            : 504  мс.

Скриншоты


Раздача ведется путем добавления новых серий

Когда раздача ведётся путём добавления новых серий, при каждом добавлении создётся новый торрент. Чтобы начать докачку новой серии, пользователям необходимо сделать следующее:
(1) остановить скачивание,
(2) удалить старый торрент у себя из клиента (старые серии удалять не надо),
(3) скачать новый торрент и запустить его у себя в клиенте вместо старого, при этом указать клиенту путь в старую папку, куда и должно происходить скачивание новых серий.
Ваш клиент при этом должен произвести хеширование (проверку) старой папки (если не производит сам - помогите ему сделать это), и будет докачивать только те серии, которых у вас ещё нет. Старые серии при этом не удаляются, а продолжают раздаваться!
Eсли вы уже удалили старые серии, то предотвратить повторную закачку старых серий можно, отжав галочку в соответсвующих местах при запуске нового торрента. По возможности, желательно не удалять старые серии как можно дольше, чтобы релизёр не столько продолжал раздавать старые серии, а смог сконцентрироваться на новых.
-Добавлена 11 серия сезона (11/08/2016) cкачать торрентом
[mul-tor.ru].t102092.torrent 
Торрент: Зарегистрирован [ 2016-08-11 20:07 ] · 17F468217E158A34EA03EB4C5167165C6ADCAF1A

Скачать .torrent

Скачать

31 KB

Статус: проверено
Скачан: 0 раз
Размер: 5,91 GB
 

Лайкните!!! Поддержите торрент трекер!!!



[Профиль] [ЛС]
Показать сообщения:    
Ответить на тему

Текущее время: 22-Фев 08:10

Часовой пояс: UTC + 2



Вы не можете начинать темы
Вы не можете отвечать на сообщения
Вы не можете редактировать свои сообщения
Вы не можете удалять свои сообщения
Вы не можете голосовать в опросах
Вы не можете прикреплять файлы к сообщениям
Вы можете скачивать файлы