Скачать (Blues Rock) Various Artists - Blues Rock, Volumes 1-5, серия Blues Paradise - 2001, APE (image+.cue), lossless торрент с торрент трекера Mul-Tor

Ответить на тему
Статистика раздачи
Размер:  2,37 GB   |    Зарегистрирован:  5 месяцев 6 дней   |    Скачан:  0 раз
Сидов:  6  [  0 KB/s  ]   Подробная статистика пиров
 
 
 
 
Автор Сообщение

nicalan ®

Пол: Не указан

Стаж: 4 года 11 месяцев

Сообщений: 1

Создавать темы 10-Авг-2016 21:45

[Цитировать]

Various Artists - Blues Rock, Volumes 1-5, серия Blues Paradise
Жанр: Blues Rock
Год выпуска диска: 2001
Производитель диска: Россия
Аудио кодек: APE
Тип рипа: image+.cue
Битрейт аудио: lossless
Продолжительность: Общая 6:03:23, каждый диск по 72 минуты

Blues Rock Vol.1 (Blues Paradise)

Трэклист:
1. Joe Bonamassa - Cradle Rock (3:52)
2. Cry Of Love - Pretty As You Please (3:49)
3. Wild' T' And The Spirit - I'm A Rivere (4:46)
4. Hardface And The Heat - Politician (4:29)
5. Oriental Spas - Feelin Alright (4:39)
6. Colin James - Mystery To Me (4:27)
7. Tim Brooks - Dull You Under (5:27)
8. A.L.I. - Save Me (4:37)
9. White Line - Mental Crowd (6:07)
10. The Dusters - Roadhouse Blues (4:01)
11. Indigenous - Holdin' Out (5:15)
12. Albatross - Man Of The World (4:49)
13. Bugs Henderson Group - Quicksand (4:36)
14. Van Wilks - Texas '51 (3:55)
15. Kevin Russel - Train Conductor (4:32)
16. Gravy - Junkyard Man (3:44)

Отчет EAC:

Exact Audio Copy V0.99 prebeta 4 from 23. January 2008
EAC extraction logfile from 15. July 2009, 23:34
Various Artists / My Favourites Blues vol.1
Used drive : Optiarc DVD RW AD-5200A Adapter: 1 ID: 1
Read mode : Secure
Utilize accurate stream : Yes
Defeat audio cache : Yes
Make use of C2 pointers : No
Read offset correction : 48
Overread into Lead-In and Lead-Out : No
Fill up missing offset samples with silence : Yes
Delete leading and trailing silent blocks : No
Null samples used in CRC calculations : Yes
Used interface : Native Win32 interface for Win NT & 2000
Used output format : Internal WAV Routines
Sample format : 44.100 Hz; 16 Bit; Stereo
TOC of the extracted CD
Track | Start | Length | Start sector | End sector
---------------------------------------------------------
1 | 0:00.00 | 3:53.00 | 0 | 17474
2 | 3:53.00 | 3:49.39 | 17475 | 34688
3 | 7:42.39 | 4:46.37 | 34689 | 56175
4 | 12:29.01 | 4:29.37 | 56176 | 76387
5 | 16:58.38 | 4:39.37 | 76388 | 97349
6 | 21:38.00 | 4:28.01 | 97350 | 117450
7 | 26:06.01 | 5:28.01 | 117451 | 142051
8 | 31:34.02 | 4:38.01 | 142052 | 162902
9 | 36:12.03 | 6:07.74 | 162903 | 190501
10 | 42:20.02 | 3:44.74 | 190502 | 207375
11 | 46:05.01 | 4:02.00 | 207376 | 225525
12 | 50:07.01 | 5:15.38 | 225526 | 249188
13 | 55:22.39 | 4:50.01 | 249189 | 270939
14 | 60:12.40 | 4:37.01 | 270940 | 291715
15 | 64:49.41 | 3:56.00 | 291716 | 309415
16 | 68:45.41 | 4:33.01 | 309416 | 329891
Range status and errors
Selected range
Filename D:\Мои документы\Downloads\Blues Rock Lossless\Blues Rock Vol.1\Various Artists - My Favourites Blues Rock vol.1.wav
Peak level 99.9 %
Range quality 99.9 %
Test CRC 606EE17B
Copy CRC 606EE17B
Copy OK
No errors occurred
End of status report

Blues Rock Vol.2 (Blues Paradise)

Трэклист:
1. Mason Casey - Smellin' Like Whiskey (4:44)
2. John Campbell - Guilt Trip (6:00)
3. Craig Erickson - Everybody's Business (5:05)
4. Sy Klopps Blues Band - Good Morning Little School Girl (4:54)
5. Sunset Heights - Dangerous Moves (4:18)
6. Innes Sibun - Come Back Crazy (5:29)
7. Bobby Mack - Palace Of The King (4:00)
8. Nathan Cavaleri Band - Summertime Blues (3:24)
9. Wild' T' And The Spirit - Freedom Train (3:56)
10. Gary Moore - You Upset Me Baby (3:15)
11. Oriental Spas - Big Book (5:10)
12. Shawn Pittman - She's Evil (3:28)
13. Bobby Messano & NBO - Sea Of Hope (4:51)
14. Jonny Lang - Hit The Ground Running (3:26)
15. Greg Kihn - Secret Meetings (6:10)
16. Rob Tognoni - The Harder I Will Fall (3:58)

Отчет EAC:

Exact Audio Copy V0.99 prebeta 4 from 23. January 2008
EAC extraction logfile from 16. July 2009, 0:26
Various Artists / My Favourites Blues - vol 2
Used drive : Optiarc DVD RW AD-5200A Adapter: 1 ID: 1
Read mode : Secure
Utilize accurate stream : Yes
Defeat audio cache : Yes
Make use of C2 pointers : No
Read offset correction : 48
Overread into Lead-In and Lead-Out : No
Fill up missing offset samples with silence : Yes
Delete leading and trailing silent blocks : No
Null samples used in CRC calculations : Yes
Used interface : Native Win32 interface for Win NT & 2000
Used output format : Internal WAV Routines
Sample format : 44.100 Hz; 16 Bit; Stereo
TOC of the extracted CD
Track | Start | Length | Start sector | End sector
---------------------------------------------------------
1 | 0:00.00 | 4:45.00 | 0 | 21374
2 | 4:45.00 | 6:01.01 | 21375 | 48450
3 | 10:46.01 | 5:05.37 | 48451 | 71362
4 | 15:51.38 | 4:55.00 | 71363 | 93487
5 | 20:46.38 | 4:18.39 | 93488 | 112876
6 | 25:05.02 | 5:29.74 | 112877 | 137625
7 | 30:35.01 | 4:00.38 | 137626 | 155663
8 | 34:35.39 | 3:25.00 | 155664 | 171038
9 | 38:00.39 | 3:57.01 | 171039 | 188814
10 | 41:57.40 | 3:16.00 | 188815 | 203514
11 | 45:13.40 | 5:11.01 | 203515 | 226840
12 | 50:24.41 | 3:29.01 | 226841 | 242516
13 | 53:53.42 | 4:51.37 | 242517 | 264378
14 | 58:45.04 | 3:26.36 | 264379 | 279864
15 | 62:11.40 | 6:10.74 | 279865 | 307688
16 | 68:22.39 | 3:58.64 | 307689 | 325602
Range status and errors
Selected range
Filename D:\Мои документы\Downloads\Blues Rock Lossless\Blues Rock Vol.2\Various Artists - My Favourites Blues Rock- vol 2.wav
Peak level 100.0 %
Range quality 100.0 %
Test CRC 1DCA6185
Copy CRC 1DCA6185
Copy OK
No errors occurred
End of status report

Blues Rock Vol.3 (Blues Paradise)

Трэклист:
1. "Sir" Oliver Mally's Blues Distillery - Stop Telling Me (3:06)
2. Doobie Twisters - Rocket Pocket (Thank You, Stevie) (3:30)
3. Joe Bonamassa - If Heartaches Were Nickels (7:50)
4. Mark Selby - You're Gonna Miss My Love (4:45)
5. Samuel Eddy - Sweetest Revenge (3:27)
6. The Hamsters - Fool For Your Stockings (6:37)
7. Colin James - It Ain't Over Yet (3:56)
8. Innes Sibun - Bloodhounds (4:39)
9. Craig Erickson Project - Shine (4:31)
10. Oriental Spas - In My Head (6:33)
11. Arthur Neilson - Walkin Blues (3:54)
12. Mezz - I Just Wanna Make Love To You (4:15)
13. Gov't Mule - Game Face (7:57)
14. Simple Service - Crazy Cow (3:52)
15. Ken Hensley - Free Spirit (3:21)

Отчет EAC:

Exact Audio Copy V0.99 prebeta 4 from 23. January 2008
EAC extraction logfile from 16. July 2009, 14:57
Various Artists / My Favourites Blues vol.3
Used drive : HL-DT-STDVD-ROM GDR8163B Adapter: 1 ID: 0
Read mode : Secure
Utilize accurate stream : Yes
Defeat audio cache : Yes
Make use of C2 pointers : No
Read offset correction : 102
Overread into Lead-In and Lead-Out : No
Fill up missing offset samples with silence : Yes
Delete leading and trailing silent blocks : No
Null samples used in CRC calculations : Yes
Used interface : Native Win32 interface for Win NT & 2000
Used output format : Internal WAV Routines
Sample format : 44.100 Hz; 16 Bit; Stereo
TOC of the extracted CD
Track | Start | Length | Start sector | End sector
---------------------------------------------------------
1 | 0:00.00 | 3:06.16 | 0 | 13965
2 | 3:06.16 | 3:31.01 | 13966 | 29791
3 | 6:37.17 | 7:51.01 | 29792 | 65117
4 | 14:28.18 | 4:45.37 | 65118 | 86529
5 | 19:13.55 | 3:27.61 | 86530 | 102115
6 | 22:41.41 | 6:37.11 | 102116 | 131901
7 | 29:18.52 | 3:56.48 | 131902 | 149649
8 | 33:15.25 | 4:40.00 | 149650 | 170649
9 | 37:55.25 | 4:32.00 | 170650 | 191049
10 | 42:27.25 | 6:33.74 | 191050 | 220598
11 | 49:01.24 | 3:54.36 | 220599 | 238184
12 | 52:55.60 | 4:15.37 | 238185 | 257346
13 | 57:11.22 | 7:57.05 | 257347 | 293126
14 | 65:08.27 | 3:53.02 | 293127 | 310603
15 | 69:01.29 | 3:22.01 | 310604 | 325754
Range status and errors
Selected range
Filename D:\Мои документы\Downloads\Blues Rock Lossless\Blues Rock Vol.5\Various Artists - My Favourites Blues vol.3.wav
Peak level 100.0 %
Range quality 99.9 %
Test CRC 2F0E57BF
Copy CRC 2F0E57BF
Copy OK
No errors occurred
End of status report

Blues Rock Vol.4 (Blues Paradise)

Трэклист:
1. Rob Tognoni - My Acid Is Kickin' In (4:05)
2. The Smokin' J's - Winter (4:24)
3. The Maniac Bullfrogs - Time (5:05)
4. Don Croissant - Big Time Woman (3:38)
5. Pecweg Bluesgang - Sweet Blue Angel (6:14)
6. Horsepower - Hooked On You (3:53)
7. Recydywa - Blues For Annie (4:27)
8. ZZ Top - Cover Your Rig (5:43)
9. Tony Galla - Worried Mind Blues (4:18)
10. Amor - Lover Down (5:31)
11. Popa Chubby - Fire (3:08)
12. Jay Gordon - Drippin Blues (4:40)
13. Cole Tate Band - The Day After Tomorrow (3:56)
14. Innes Sibun - Don't Keep Me Hanging On (9:33)
15. Johnny Fuzzy Kruz - The Slave (4:24)

Отчет EAC:

Exact Audio Copy V0.99 prebeta 4 from 23. January 2008
EAC extraction logfile from 16. July 2009, 9:08
Various / My Favourites Blues vol.4
Used drive : Optiarc DVD RW AD-5200A Adapter: 1 ID: 1
Read mode : Secure
Utilize accurate stream : Yes
Defeat audio cache : Yes
Make use of C2 pointers : No
Read offset correction : 48
Overread into Lead-In and Lead-Out : No
Fill up missing offset samples with silence : Yes
Delete leading and trailing silent blocks : No
Null samples used in CRC calculations : Yes
Used interface : Native Win32 interface for Win NT & 2000
Used output format : Internal WAV Routines
Sample format : 44.100 Hz; 16 Bit; Stereo
TOC of the extracted CD
Track | Start | Length | Start sector | End sector
---------------------------------------------------------
1 | 0:00.00 | 4:06.00 | 0 | 18449
2 | 4:06.00 | 4:24.36 | 18450 | 38285
3 | 8:30.36 | 5:05.37 | 38286 | 61197
4 | 13:35.73 | 3:38.37 | 61198 | 77584
5 | 17:14.35 | 6:14.20 | 77585 | 105654
6 | 23:28.55 | 3:54.02 | 105655 | 123206
7 | 27:22.57 | 4:27.42 | 123207 | 143273
8 | 31:50.24 | 5:43.43 | 143274 | 169041
9 | 37:33.67 | 4:18.55 | 169042 | 188446
10 | 41:52.47 | 5:31.14 | 188447 | 213285
11 | 47:23.61 | 3:08.13 | 213286 | 227398
12 | 50:31.74 | 4:40.28 | 227399 | 248426
13 | 55:12.27 | 3:56.32 | 248427 | 266158
14 | 59:08.59 | 9:33.74 | 266159 | 309207
15 | 68:42.58 | 4:24.52 | 309208 | 329059
Range status and errors
Selected range
Filename D:\Мои документы\Downloads\Blues Rock Lossless\Blues Rock Vol.4\Various - My Favourites Blues Rock vol.4.wav
Peak level 99.9 %
Range quality 100.0 %
Test CRC A7152A3D
Copy CRC A7152A3D
Copy OK
No errors occurred
End of status report

Blues Rock Vol.5 (Blues Paradise)

Трэклист:
1. The Maniac Bullfrogs - Badlands (3:44)
2. Horsepower - Rock Wife (3:01)
3. The Jeff Healey Band - Which One (3:56)
4. Toto - Baby He's Your Man (5:39)
5. Tony Galla - Desire (3:06)
6. Pecweg Bluesgang - Harley Davidson (4:49)
7. Recydywa - Kansas City (3:51)
8. Rob Tognoni - In The Scheme Of Things (4:48)
9. Foghat - Louisiana Blues (5:49)
10. Popa Chubby - Don't Let Me Be Misunderstood (4:34)
11. Jay Gordon - Savage Resurrection (5:21)
12. Amor - Hit So Hard (7:52)
13. Claz Yngstrom - Back On Your Feet (4:45)
14. Jay Hooks - Easy Way Out (3:21)
15. Homewreckers - Early In The Morning (8:22)

Отчет EAC:

Exact Audio Copy V0.99 prebeta 4 from 23. January 2008
EAC extraction logfile from 16. July 2009, 10:00
Various / My favourites blues - Vol. 5
Used drive : Optiarc DVD RW AD-5200A Adapter: 1 ID: 1
Read mode : Secure
Utilize accurate stream : Yes
Defeat audio cache : Yes
Make use of C2 pointers : No
Read offset correction : 48
Overread into Lead-In and Lead-Out : No
Fill up missing offset samples with silence : Yes
Delete leading and trailing silent blocks : No
Null samples used in CRC calculations : Yes
Used interface : Native Win32 interface for Win NT & 2000
Used output format : Internal WAV Routines
Sample format : 44.100 Hz; 16 Bit; Stereo
TOC of the extracted CD
Track | Start | Length | Start sector | End sector
---------------------------------------------------------
1 | 0:00.00 | 3:44.53 | 0 | 16852
2 | 3:44.53 | 3:01.38 | 16853 | 30465
3 | 6:46.16 | 3:56.37 | 30466 | 48202
4 | 10:42.53 | 5:39.70 | 48203 | 73697
5 | 16:22.48 | 3:06.29 | 73698 | 87676
6 | 19:29.02 | 4:49.11 | 87677 | 109362
7 | 24:18.13 | 3:52.00 | 109363 | 126762
8 | 28:10.13 | 4:49.01 | 126763 | 148438
9 | 32:59.14 | 5:49.35 | 148439 | 174648
10 | 38:48.49 | 4:35.01 | 174649 | 195274
11 | 43:23.50 | 5:21.19 | 195275 | 219368
12 | 48:44.69 | 7:52.74 | 219369 | 254842
13 | 56:37.68 | 4:45.37 | 254843 | 276254
14 | 61:23.30 | 3:21.37 | 276255 | 291366
15 | 64:44.67 | 8:22.11 | 291367 | 329027
Range status and errors
Selected range
Filename D:\Мои документы\Downloads\Blues Rock Lossless\Blues Rock Vol.5\Various - My Favourites Blues Rock - Vol. 5.wav
Peak level 99.9 %
Range quality 100.0 %
Test CRC D211DC25
Copy CRC D211DC25
Copy OK
No errors occurred
End of status report
cкачать торрентом
[mul-tor.ru].t112958.torrent 
Торрент: Зарегистрирован [ 2016-08-10 21:45 ] · 1D3E462DAB082CD60C08D83D96D2D5603094CD98

Скачать .torrent

Скачать

16 KB

Статус: проверено
Скачан: 0 раз
Размер: 2,37 GB
 

Лайкните!!! Поддержите торрент трекер!!!



[Профиль] [ЛС]
Показать сообщения:    
Ответить на тему

Текущее время: 17-Янв 02:49

Часовой пояс: UTC + 2



Вы не можете начинать темы
Вы не можете отвечать на сообщения
Вы не можете редактировать свои сообщения
Вы не можете удалять свои сообщения
Вы не можете голосовать в опросах
Вы не можете прикреплять файлы к сообщениям
Вы можете скачивать файлы