Скачать Мистериум. Тьма в бутылке / Flaskepost fra P (Ганс Петтер Моланд / Hans Petter Moland) [2016 г., Триллер, Драма] Web-DLRip (MVO) торрент с торрент трекера Mul-Tor

Ответить на тему
Статистика раздачи
Размер:  2,05 GB   |    Зарегистрирован:  6 месяцев 29 дней   |    Скачан:  3 раза
Сидов:  4  [  0 KB/s  ]   Личеров:  16  [  0 KB/s  ]   Подробная статистика пиров
 
 
 
 
Автор Сообщение

Allep ®

Пол: Мужской

Стаж: 6 лет 9 месяцев

Сообщений: 5618

Откуда: Москва

Создавать темы 24-Июл-2016 12:28

[Цитировать]

Мистериум. Тьма в бутылке / Flaskepost fra P Дата выхода: 2016
Премьера (Мир): 3 марта 2016, Дания
Российское название: Мистериум. Тьма в бутылке
Оригинальное название: Flaskepost fra P
Жанр: Триллер, Драма
Режиссёр: Ганс Петтер Моланд / Hans Petter Moland
В ролях: Николай Ли Каас, Фарес Фарес, Пол Сверре Валхейм Хаген, Якоб Ульрик Ломанн, Amanda Collin, Джохэнн Луиз Шмидт, Якоб Офтебро, Сигне Анастассиа Маннов, Сёрен Пильмарк, Михаэль Броструп
О фильме: Выброшенная на берег моря бутылка с леденящим душу посланием, написанным восемь лет назад, привлекает внимание особого отдела полиции Копенгагена. За расследование берутся комиссар Карл Мёрк и его помощник. Они выходят на след убийцы-психопата и раскрывают жуткую историю похищенных детей, об исчезновении которых никто не заявлял…

Кинокомпания: Det Danske Filminstitut, Film i Väst, TV2 Danmark, TV2 Norge, TV4, ZDF Enterprises, Zentropa Entertainments20, Zentropa Hamburg, Zentropa International Berlin, Zentropa International Norway, Zentropa Post Production, Zentropa Productions 2, Zweites Deutsches Fernsehen (ZDF)
Страна: Дания, Германия, Швеция, Норвегия
Продолжительность: 01:51:45
Перевод: Профессиональный (многоголосый закадровый) [GreenРай Studio]
Аудио кодек: АС3
Видео кодек: XviD
Формат: Avi (Совместимо с бытовыми плеерами, 1/2 DVD5)
Качество: Web-DLRip.
Видео: 720x304 (2.37:1), 24.00 fps, XviD Mpeg-4 build 50 ~1837 kbps avg, 0.350 bit/pixel
Аудио:
1. Russian: 48 kHz, AC3 Dolby Digital, 3/2 (L,C,R,l,r) + LFE ch, ~384 kbps;
2. Norsk: 48 kHz, AC3 Dolby Digital, 3/2 (L,C,R,l,r) + LFE ch, ~384 kbps;
Язык: Русский, Норвежский (Оригинал).

Мистериум Тьма в бутылке (2016) | Трейлер

Рецензия с КиноПоиск.ru от shuran-kutan

Шотландские пограничники вылавливают из моря бутылку с загадочными письменами, после того, как был найден человек умеющий читать, выяснилось, что текст написан на датском языке. Поскольку бутылка дрейфовала по волнам долгие годы, дело передаётся в отдел Q, занимающийся «висяками». Расшифровав остатки текста, Ассад и Карл приходят к выводу, что письмо представляет собой крик о помощи, написанный похищенным ребёнком. Проблема заключается в том, что в законопослушной Дании похищение детей явление столь же редкое, как волосы на голове Брюса Уиллиса. Сотрудники отдела Q начинают расследование, и обнаруживают несколько случаев загадочной пропажи детей, причём в каждом из случаев, родители не обращались в полицию…
Для тех, кто читал книги Юсси Адлер — Ольсон, этот фильм не содержит ничего нового, но! Несмотря на то, что я знал что именно я увижу, фильм меня по — настоящему поразил. Режиссёром выступил Ганс Петтер Моланд (Довольно добрый человек, Дурацкое дело…), Моланд отказался от своей фирменной иронии и полностью придерживался сценария, эффект получился поразительный. Вам приходилось когда — нибудь втыкать себе под ногти иголки? А может быть добродушный стоматолог, попадал сверлом в ваш оголённый нерв? Проняло? Заколдобило? А теперь представьте, что иголочки под ногтями медленно проворачивают, или стоматолог возомнил себя стахановцем, и начал орудовать сверлом, как отбойным молотком…
Именно такие ощущения возникают у меня, когда режиссёр демонстрирует насилие над детьми, нет, здесь нет модной сейчас в Европе педофилии, маньяк в исполнении Пола Сверре Валхейм Хагана (дай Бог здоровья его родителям, придумавшим такое имечко любимому сынуле), асексуален, невозмутим, холоден, и оттого ещё более страшен. Как и в предыдущих двух частях, этот фильм рассказывает историю мести, кому и за что мстит Йоханнес (Пол Сверре… ну, вы в курсе), ответ в фильме.
«Тьма в бутылке» — это не только история противостояния Карла и Йоханнеса, не просто очередное расследование, это ещё и столкновение двух видов мировоззрения: религиозного и атеистического, Моланд давно насмехается над религией (вспомните его шуточки с конфессиональными символами в «Kraftidioten»), здесь же он ставит вопрос ребром: свободен ли человек в своих действиях, или же им управляет какое — то высшее начало (трансцендентное, привет Иммануил!)? Зло постоянно, добро мимолётно, как говаривал один знающий товарищ, судя по слезам Карла в финале, он был прав.
Создатели фильма полностью сосредоточили своё внимание на расследовании, и отбросили личную жизнь Карла, а в книге ей уделено много времени, там много колоритных персонажей, да и Роза с её психическим расстройством очень и очень недурна (не то, что эта лупоглазая несушка в фильме).
Итог.
Моланд прокатил зрителя на американских горках, после медленного начала, действие так лихо несётся и совершает такие повороты, что зритель начинает повизгивать от восторга, напряжение нарастает постепенно, достигая апогея к концу фильма, к финальным титрам чувствуешь себя как Карл Мерк — руки трясутся, и хочется плакать. Месть, сектантство, ксенофобия, все возможные вкусности приготовил для зрителя Моланд. Ждём «Журнала 64».

MediaInfo

Общее
Формат : AVI
Формат/Информация : Audio Video Interleave
Профиль формата : OpenDML
Размер файла : 2,05 Гбайт
Продолжительность : 1 ч. 51 м.
Общий поток : 2623 Кбит/сек
Программа кодирования : VirtualDubMod 1.5.10.2 (build 2540/release)
Библиотека кодирования : VirtualDubMod build 2540/release
Видео
Идентификатор : 0
Формат : MPEG-4 Visual
Профиль формата : Advanced Simple@L5
Параметр BVOP формата : 2
Параметр QPel формата : Нет
Параметр GMC формата : Без точки перехода
Параметр матрицы формата : Default (MPEG)
Идентификатор кодека : XVID
Идентификатор кодека/Подсказка : XviD
Продолжительность : 1 ч. 51 м.
Битрейт : 1837 Кбит/сек
Ширина : 720 пикселей
Высота : 304 пикселя
Соотношение сторон : 2,35:1
Частота кадров : 24,000 кадра/сек
Цветовое пространство : YUV
Субдискретизация насыщенности : 4:2:0
Битовая глубина : 8 бит
Тип развёртки : Прогрессивная
Метод сжатия : С потерями
Бит/(Пиксели*Кадры) : 0.350
Размер потока : 1,43 Гбайт (70%)
Библиотека кодирования : XviD 1.2.1 (UTC 2008-12-04)
Аудио #1
Идентификатор : 1
Формат : AC-3
Формат/Информация : Audio Coding 3
Расширение режима : CM (complete main)
Параметр Endianness формата : Big
Идентификатор кодека : 2000
Продолжительность : 1 ч. 51 м.
Вид битрейта : Постоянный
Битрейт : 384 Кбит/сек
Каналы : 6 каналов
Расположение каналов : Front: L C R, Side: L R, LFE
Частота : 48,0 КГц
Битовая глубина : 16 бит
Метод сжатия : С потерями
Размер потока : 307 Мбайт (15%)
Выравнивание : Разделение по промежуткам
Продолжительность промежутка : 42 мс. (1,00 видеокадр)
Время предзагрузки промежутка : 500 мс.
Аудио #2
Идентификатор : 2
Формат : AC-3
Формат/Информация : Audio Coding 3
Расширение режима : CM (complete main)
Параметр Endianness формата : Big
Идентификатор кодека : 2000
Продолжительность : 1 ч. 51 м.
Вид битрейта : Постоянный
Битрейт : 384 Кбит/сек
Каналы : 6 каналов
Расположение каналов : Front: L C R, Side: L R, LFE
Частота : 48,0 КГц
Битовая глубина : 16 бит
Метод сжатия : С потерями
Размер потока : 307 Мбайт (15%)
Выравнивание : Разделение по промежуткам
Продолжительность промежутка : 42 мс. (1,00 видеокадр)
Время предзагрузки промежутка : 500 мс.

Скриншоты






cкачать торрентом
[mul-tor.ru].t104734.torrent 
Торрент: Зарегистрирован [ 2016-07-24 12:28 ] · B8EBD1AD31C5EFE5A0786B0FAB5B6E9C6510594B

Скачать .torrent

Скачать

11 KB

Статус: проверено
Скачан: 3 раз
Размер: 2,05 GB
 

Лайкните!!! Поддержите торрент трекер!!!



[Профиль] [ЛС]
Показать сообщения:    
Ответить на тему

Текущее время: 23-Фев 02:27

Часовой пояс: UTC + 2



Вы не можете начинать темы
Вы не можете отвечать на сообщения
Вы не можете редактировать свои сообщения
Вы не можете удалять свои сообщения
Вы не можете голосовать в опросах
Вы не можете прикреплять файлы к сообщениям
Вы можете скачивать файлы