Скачать Случайный экзорцист / Accidental Exorcist (Дэниэл Фалики / Daniel Falicki) [2016 г., Триллер] Web-DLRip (VO) торрент с торрент трекера Mul-Tor

Ответить на тему
Статистика раздачи
Размер:  1,38 GB   |    Зарегистрирован:  8 месяцев 17 дней   |    Скачан:  1 раз
Сидов:  263  [  0 KB/s  ]   Личеров:  100  [  0 KB/s  ]   Подробная статистика пиров
 
 
 
 
Автор Сообщение

Allep ®

Пол: Мужской

Стаж: 6 лет 10 месяцев

Сообщений: 5616

Откуда: Москва

Создавать темы 09-Июл-2016 14:07

[Цитировать]

Случайный экзорцист / Accidental Exorcist Дата выхода: 2016
Премьера (Мир): 11 марта 2016, США
Российское название: Случайный экзорцист
Оригинальное название: Accidental Exorcist
Жанр: Триллер
Режиссёр: Дэниэл Фалики / Daniel Falicki
В ролях: Дэниэл Фалики, Шеррил Деспрес, Рatrick Hendren, Крис Котчер, Джейсон Рот
О фильме: Ричард Ванук – плохой алкоголик и плохой писатель. Но он также прирожденный экзорцист. И это единственное, что он действительно делает хорошо.

Кинокомпания: Rotomation Pictures, Sector 5 Films
Страна: США
Продолжительность: 01:49:08
Перевод: Любительский (одноголосый закадровый) [Хихикающий доктор]
Аудио кодек: АС3
Видео кодек: XviD
Формат: Avi (Совместимо с бытовыми плеерами, 1/3 DVD5)
Качество: Web-DLRip.
Видео: 720x304 (2.37:1), 23.976 fps, XviD Mpeg-4 build 73 ~1615 kbps avg, 0.299 bit/pixel
Аудио: Russian: 48 kHz, AC3 Dolby Digital, 2/0 (L, R) ch stereo, ~192 kbps;
Язык: Русский.

ACCIDENTAL EXORCIST Official Trailer - Horror Movie [HD]

MediaInfo

General
Complete name : E:\Downloads\Accidental.Exorcist.2016.L1.WEB-DLRip.avi
Format : AVI
Format/Info : Audio Video Interleave
File size : 1.38 GiB
Duration : 1h 49mn
Overall bit rate : 1 817 Kbps
Writing application : VirtualDubMod 1.5.10.3 | www.virtualdub-fr.org || (build 2550/release)
Writing library : VirtualDubMod build 2550/release
Video
ID : 0
Format : MPEG-4 Visual
Format profile : Advanced Simple@L5
Format settings, BVOP : 2
Format settings, QPel : No
Format settings, GMC : No warppoints
Format settings, Matrix : Default (H.263)
Codec ID : XVID
Codec ID/Hint : XviD
Duration : 1h 49mn
Bit rate : 1 615 Kbps
Width : 720 pixels
Height : 304 pixels
Display aspect ratio : 2.35:1
Frame rate : 23.976 fps
Color space : YUV
Chroma subsampling : 4:2:0
Bit depth : 8 bits
Scan type : Progressive
Compression mode : Lossy
Bits/(Pixel*Frame) : 0.299
Stream size : 1.18 GiB (85%)
Writing library : XviD 73
Audio
ID : 1
Format : AC-3
Format/Info : Audio Coding 3
Mode extension : CM (complete main)
Format settings, Endianness : Big
Codec ID : 2000
Duration : 1h 49mn
Bit rate mode : Constant
Bit rate : 192 Kbps
Channel count : 2 channels
Channel positions : Front: L R
Sampling rate : 48.0 KHz
Bit depth : 16 bits
Compression mode : Lossy
Stream size : 150 MiB (11%)
Alignment : Split accross interleaves

Скриншоты












cкачать торрентом
[mul-tor.ru].t104148.torrent 
Торрент: Зарегистрирован [ 2016-07-09 14:07 ] · 0A79268DC59A63E28BD06331C8DEFBF049122B76

Скачать .torrent

Скачать

15 KB

Статус: проверено
Скачан: 1 раз
Размер: 1,38 GB
 

Лайкните!!! Поддержите торрент трекер!!!



[Профиль] [ЛС]
Показать сообщения:    
Ответить на тему

Текущее время: 27-Мар 00:51

Часовой пояс: UTC + 2



Вы не можете начинать темы
Вы не можете отвечать на сообщения
Вы не можете редактировать свои сообщения
Вы не можете удалять свои сообщения
Вы не можете голосовать в опросах
Вы не можете прикреплять файлы к сообщениям
Вы можете скачивать файлы