Скачать Папашина армия / Dad's Army (Оливер Паркер / Oliver Parker) [2016 г., Комедия] HDRip (Line) торрент с торрент трекера Mul-Tor

Ответить на тему
Статистика раздачи
Размер:  1,37 GB   |    Зарегистрирован:  6 месяцев 9 дней   |    Скачан:  0 раз
Сидов:  375  [  0 KB/s  ]   Личеров:  131  [  0 KB/s  ]   Подробная статистика пиров
 
 
 
 
Автор Сообщение

Allep ®

Пол: Мужской

Стаж: 6 лет 8 месяцев

Сообщений: 5616

Откуда: Москва

Создавать темы 09-Июл-2016 13:02

[Цитировать]

Папашина армия / Dad's Army«The British Empire strikes back» Дата выхода: 2016
Премьера (Мир): 5 февраля 2016, Великобритания, Ирландия, США
Российское название: Папашина армия
Оригинальное название: Dad's Army
Жанр: Комедия
Режиссёр: Оливер Паркер / Oliver Parker
В ролях: Кэтрин Зета-Джонс, Билл Найи, Майкл Гэмбон, Тоби Джонс, Марк Гейтисс, Сара Ланкашир, Блэйк Харрисон, Том Кортни, Дэниэл Мейс, Билл Патерсон, Эмили Атак, Элисон Стедман, Ian Lavender, Frank Williams, Annette Crosbie, Holli Dempsey, Мартин Сэвидж, Фелисити Монтегю, Оливер Тобайэс, Джулия Фостер, Рассел Балог, Марк Тэнди, Жаклин Тонг, Ellen Capron, Michael Heath, Mark Warner, Нил Брум, Рat Carney, Стюарт Адамс, Patricia Winker, David Swift, Philip Gascoyne, Rebecca Rosenberg, Clare Crowther, Katherine Farmworth, Jonathan Taylor, Paul Hodgson, Jacob Robson, Susan Dukes, Rick Gilroy, Charlotte Nichol, Andrew Woolgar, Chris Dale, Harry Knight, Alan Jackson, Stewart Short
О фильме: Ремейк классического ситкома 1968 года. Вторая мировая война, английское южное побережье находится под угрозой немецкого вторжения. Все мужское население уже воюет, остались только старики и подростки. Взвод Уилмингтона принимает у себя женщину-журналиста и немецкого шпиона, в то время как война подходит к завершению.

Кинокомпания: DJ Films
Страна: Великобритания
Продолжительность: 01:39:52
Перевод: Профессиональный (полное дублирование) [Line]
Аудио кодек: АС3
Видео кодек: XviD
Формат: Avi (Совместимо с бытовыми плеерами, 1/3 DVD5)
Качество: HDRip.
Видео: 720x304 (2.37:1), 23.976 fps, XviD Mpeg-4 build 50 ~1566 kbps avg, 0.335 bit/pixel
Аудио: Russian: 48 kHz, AC3 Dolby Digital, 2/0 (L, R) ch stereo, ~384 kbps;
Язык: Русский.

13 часов: Тайные солдаты Бенгази - Трейлер (дублированный) 1080p

MediaInfo

Общее
Полное имя : C:\Папашина армия.2016.HDRip.avi
Формат : AVI
Формат/Информация : Audio Video Interleave
Размер файла : 1,37 Гбайт
Продолжительность : 1 ч. 39 м.
Общий поток : 1959 Кбит/сек
Программа кодирования : VirtualDubMod 1.5.10.2 (build 2540/release)
Библиотека кодирования : VirtualDubMod build 2540/release
Видео
Идентификатор : 0
Формат : MPEG-4 Visual
Профиль формата : Advanced Simple@L5
Параметр BVOP формата : 2
Параметр QPel формата : Нет
Параметр GMC формата : Без точки перехода
Параметр матрицы формата : Выборочная
Идентификатор кодека : XVID
Идентификатор кодека/Подсказка : XviD
Продолжительность : 1 ч. 39 м.
Битрейт : 1566 Кбит/сек
Ширина : 720 пикселей
Высота : 304 пикселя
Соотношение сторон : 2,35:1
Частота кадров : 23,976 (24000/1001) кадра/сек
Цветовое пространство : YUV
Субдискретизация насыщенности : 4:2:0
Битовая глубина : 8 бит
Тип развёртки : Прогрессивная
Метод сжатия : С потерями
Бит/(Пиксели*Кадры) : 0.335
Размер потока : 1,28 Гбайт (86%)
Библиотека кодирования : XviD 1.2.1 (UTC 2008-12-04)
Аудио
Идентификатор : 1
Формат : AC-3
Формат/Информация : Audio Coding 3
Расширение режима : CM (complete main)
Параметр Endianness формата : Big
Идентификатор кодека : 2000
Продолжительность : 1 ч. 39 м.
Вид битрейта : Постоянный
Битрейт : 384 Кбит/сек
Каналы : 2 канала
Расположение каналов : Front: L R
Частота : 48,0 КГц
Частота кадров : 31,250 кадров/сек (1536 spf)
Метод сжатия : С потерями
Размер потока : 197 Мбайт (14%)
Выравнивание : Разделение по промежуткам
Продолжительность промежутка : 42 мс. (1,00 видеокадр)
Время предзагрузки промежутка : 500 мс.

Скриншоты















cкачать торрентом
[mul-tor.ru].t104147.torrent 
Торрент: Зарегистрирован [ 2016-07-09 13:02 ] · 55BD28EE757B9245926BCCEC56B2279C3F4A13DE

Скачать .torrent

Скачать

14 KB

Статус: проверено
Скачан: 0 раз
Размер: 1,37 GB
 

Лайкните!!! Поддержите торрент трекер!!!



[Профиль] [ЛС]
Показать сообщения:    
Ответить на тему

Текущее время: 18-Янв 22:10

Часовой пояс: UTC + 2



Вы не можете начинать темы
Вы не можете отвечать на сообщения
Вы не можете редактировать свои сообщения
Вы не можете удалять свои сообщения
Вы не можете голосовать в опросах
Вы не можете прикреплять файлы к сообщениям
Вы можете скачивать файлы