Скачать Интерны / Сезон: 10 / Серии: 1-23 (181-203) из 23 (203) (Максим Пежемский) [2013, Ситком, DVB (AVC) торрент с торрент трекера Mul-Tor

Ответить на тему
Статистика раздачи
Размер:  8,62 GB   |    Зарегистрирован:  2 года 10 месяцев   |    Скачан:  59 раз
Сидов:  16  [  0 KB/s  ]   Личеров:  1  [  0 KB/s  ]   Подробная статистика пиров
 
 
 
 
Автор Сообщение

slow-mo ®

Пол: Не указан

Создавать темы 04-Фев-2014 14:22

[Цитировать]

Интерны

Год выпуска: 2013
Производство: Comedi Club Production
Жанр: Ситком
Продолжительность: ~ 24 мин серия
Режиссёр: Максим Пежемский
В ролях: Иван Охлобыстин, Кристина Асмус, Илья Глинников, Александр Ильин-мл., Дмитрий Шаракоис, Один Ланд Байрон,
Вадим Демчог, Светлана Пермякова, Светлана Камынина, Мария Пирогова, Елена Суркова, Татьяна Лянник, Татьяна Мухина
Описание: На протяжении вот уже нескольких сезонов заведующий терапевтическим отделением обычной
российской клиники доктор Быков продолжает вдохновенно, изощренно и с юмором издеваться над своими
подопечными – четырьмя начинающими врачами-интернами. Впрочем, издевательства Быкова (сверхурочные дежурства
в наказание за неправильный диагноз – это только самые безобидные из них) преследуют высокую цель – сделать из
недавних студентов настоящих специалистов, да и сами интерны в долгу не остаются, регулярно отвечая Быкову той
же монетой. На ту или иную сторону этого комического противостояния периодически встают другие сотрудники
больницы: главврач Анастасия Кисегач, старшая медсестра Люба, старинный друг Быкова врач-венеролог Купитман.
Раздача группы:
Сэмпл
Все раздачи сериала
Качество: DVB
Формат: TS
Видео кодек: AVC
Аудио кодек: MP2
Видео: AVC, 720х576, 4:3, 1880 Kbps, 25 fps, Bits/(Pixel*Frame): 0, 181
Аудио: 192 Kbps, 48.0 KHz, 2 ch
Трейлер к Интернам

MI

G:\СЕРИАЛЫ\Интерны (DVB, AVC) - 10 сезон\Интерны - 181 серия.ts
General #1
ID : 1 (0x1)
Complete name : G:\СЕРИАЛЫ\Интерны (DVB, AVC) - 10 сезон\Интерны - 181 серия.ts
Format : MPEG-TS
File size : 388 MiB
Duration : 24mn 52s
Overall bit rate mode : Variable
Overall bit rate : 2 182 Kbps
Maximum Overall bit rate : 35.5 Mbps
Video #4113
ID : 4113 (0x1011)
Menu ID : 1 (0x1)
Format : AVC
Format/Info : Advanced Video Codec
Format profile : High@L3.0
Format settings, CABAC : Yes
Format settings, ReFrames : 3 frames
Codec ID : 27
Duration : 24mn 53s
Bit rate mode : Variable
Bit rate : 1 880 Kbps
Maximum bit rate : 40.0 Mbps
Width : 720 pixels
Height : 576 pixels
Display aspect ratio : 4:3
Frame rate : 25.000 fps
Standard : Component
Color space : YUV
Chroma subsampling : 4:2:0
Bit depth : 8 bits
Scan type : Interlaced
Scan order : Top Field First
Bits/(Pixel*Frame) : 0.181
Stream size : 335 MiB (86%)
Color primaries : BT.470-6 System B, BT.470-6 System G, BT.601-6 625, BT.1358 625, BT.1700 625 PAL, BT.1700 625 SECAM
Transfer characteristics : BT.470-6 System B, BT.470-6 System G
Matrix coefficients : BT.470-6 System B, BT.470-6 System G, BT.601-6 625, BT.1358 625, BT.1700 625 PAL, BT.1700 625 SECAM, IEC 61966-2-4 601
Audio #4352
ID : 4352 (0x1100)
Menu ID : 1 (0x1)
Format : MPEG Audio
Format version : Version 1
Format profile : Layer 2
Codec ID : 4
Duration : 24mn 52s
Bit rate mode : Constant
Bit rate : 192 Kbps
Channel(s) : 2 channels
Sampling rate : 48.0 KHz
Compression mode : Lossy
Stream size : 34.2 MiB (9%)

Скриншоты

Раздача ведется путем добавления новых серий

Внимание! Раздача ведётся путём добавления новых серий; при каждом добавлении создётся новый торрент. Чтобы начать докачку новой серии, пользователям необходимо сделать следующее:
(1) остановить скачивание,
(2) удалить старый торрент у себя из клиента (старые серии удалять не надо),
(3) скачать новый торрент и запустить его у себя в клиенте вместо старого, при этом указать клиенту путь в старую папку куда и должно происходить скачивание новых серий.
Ваш клиент при этом должен произвести хеширование (проверку) старой папки (если не производит сам - помогите ему сделать это), и будет докачивать только те серии которых у вас ещё нет. Старые серии при этом не удаляются, а продолжают раздаваться!
Eсли вы уже удалили старые серии, то предотвратить повторную закачку старых серий можно, отжав галочку в соответствующих местах при запуске нового торрента.
Добавлены 16-я серия и 23-я серии Перекачайте торрент! cкачать торрентом
[mul-tor.ru].t54085.torrent 
Торрент: Зарегистрирован [ 2014-03-25 19:07 ] · C2BED91BE0AB6337782EA4BB1373E915D3A11486

Скачать .torrent

Скачать

24 KB

Статус: проверено
Скачан: 59 раз
Размер: 8,62 GB
 

Лайкните!!! Поддержите торрент трекер!!!





Последний раз редактировалось: slow-mo (2014-03-25 19:07), всего редактировалось 6 раз(а)
 

skysfera

Пол: Не указан

Стаж: 3 года 3 месяца

Сообщений: 1

Создавать темы 14-Фев-2014 05:37 (спустя 9 дней)

[Цитировать]

продолжение будет? cкачать торрентом
[Профиль] [ЛС]

slow-mo ®

Пол: Не указан

Создавать темы 15-Фев-2014 14:27 (спустя 1 день 8 часов)

[Цитировать]

раздача обновлена Добавлены 16-я серия и 23-я серии cкачать торрентом
 

Blue Rabbit

Пол: Не указан

Стаж: 3 года 5 месяцев

Сообщений: 5

Создавать темы 25-Июн-2014 12:27 (спустя 4 месяца 9 дней)

[Цитировать]

станьте пожалуйста на раздачу. cкачать торрентом
[Профиль] [ЛС]
Показать сообщения:    
Ответить на тему

Текущее время: 23-Фев 02:26

Часовой пояс: UTC + 2



Вы не можете начинать темы
Вы не можете отвечать на сообщения
Вы не можете редактировать свои сообщения
Вы не можете удалять свои сообщения
Вы не можете голосовать в опросах
Вы не можете прикреплять файлы к сообщениям
Вы можете скачивать файлы